<?xml version="1.0" standalone="no"?>
<!DOCTYPE svg PUBLIC "-//W3C//DTD SVG 1.1//EN" "http://www.w3.org/Graphics/SVG/1.1/DTD/svg11.dtd">
<svg xmlns="http://www.w3.org/2000/svg">
<metadata>Generated by Fontastic.me</metadata>
<defs>
<font id="retinaicon-font" horiz-adv-x="512">
<font-face font-family="retinaicon-font" units-per-em="512" ascent="480" descent="-32"/>
<missing-glyph horiz-adv-x="512" />

<glyph unicode="&#97;" d="M499 143c-3 5-8 8-14 8-26 0-74 8-115 22l0 1-18 46c-1 2-4 12-17 18-15 7-36 7-62-2-7-3-14-5-19-6l0 63 3 0c47 0 83 14 106 42 40 48 27 118 27 121l-2 8-8 0c-48-3-84-18-107-44-5 15-13 34-32 52-31 30-80 43-145 39l-8 0-1-7c-1-3-12-66 27-115 26-33 66-51 121-57l0-106c-11-2-19-1-28 0-7 0-15 1-26 1-25 0-30-16-32-24-1-2-2-5-2-6 0 0-3-1-11 1-11 3-22 1-31-5-20-13-26-42-28-49-13 11-34 22-48 22-9 0-14-4-16-8-4-5-4-11-2-19 11-33 90-91 128-110l2-1c37-19 58-29 97-29 20 0 40 6 62 13 23 7 47 15 71 15 48 0 77 8 79 8l3 1 2 3c21 31 54 85 44 104z m-127 301c2-18 3-64-23-97-18-21-45-32-80-34 6 16 24 33 32 39l-12 15c-2-2-15-12-26-26 0 18 4 41 18 60 18 25 49 39 91 43z m-243-44c-26 34-26 76-25 93 56 2 98-10 124-35 28-26 29-59 29-60-3-6-5-13-7-19-16 40-44 55-45 56l-9-17c1-1 33-18 42-67-50 5-86 21-109 49z m-33-260c1 8 7 30 20 38 4 3 10 3 16 2 24-6 31 5 35 18 2 7 3 10 14 10 11 0 18-1 24-1 18-2 31-3 74 11 37 12 52 3 55-4l12-32c-23 9-38 13-58 13-16 0-36-2-62-6-70-10-77-33-77-40l0-2 3-1c0-2 14-33 48-33 25 0 55 7 65 9 5-3 9-6 11-8-7-6-35-20-76-20-44 0-98 27-116 45-2 1-3 3-5 4z m345-87c-8-2-34-7-70-7-26 0-52-8-76-16-21-6-40-12-57-12-35 0-52 8-89 27l-1 1c-38 18-111 74-119 99 0 0 0 1 0 2 10 0 31-11 41-22 21-21 81-50 130-50 48 0 95 19 95 38 0 14-18 25-24 28l-3 1-4-1c0 0-37-9-64-9-17 0-25 12-28 18 3 3 15 14 58 20 25 4 44 6 59 6 19 0 32-4 60-15 46-18 102-29 133-29 0-12-18-46-41-79z"/>
<glyph unicode="&#98;" d="M478 503l-1 8-8 0c-107 6-185-13-231-58-20-19-30-39-34-55-35 34-87 54-155 58l-9 1-1-9c-1-4-20-109 40-181 33-40 83-59 150-60-2-35 0-82 14-122 11-27 26-86 27-87l19 6c-1 2-16 60-27 88-16 43-15 97-12 130 1 6 2 13 3 22 83 8 145 36 184 86 59 74 42 169 41 173z m-384-225c-44 53-40 131-37 157 65-5 112-26 142-62 0-2 0-3 0-3l2 0c1-1 3-2 4-4 26-36 30-80 29-112 0 0 0 0 0 0-28 46-87 105-95 113l-14-15c36-35 93-103 102-129-59 2-104 20-133 55z m327 64c-35-44-91-70-167-77 0 0 0 1 0 2 14 80 59 108 59 109l-10 17c-2-1-34-21-55-74-5 20-13 40-27 59 0 1-1 1-1 2 2 12 9 36 32 59 40 38 112 56 208 52 2-23 5-93-39-149z"/>
<glyph unicode="&#99;" d="M242 443l-121 69-121-69 0-139 121-69 121 69z m-19-128l-102-59-102 59 0 117 102 58 102-58z m168 197l-121-69 0-139 121-69 121 69 0 139z m102-197l-102-59-102 59 0 117 102 58 102-58z m-363-107l0-139 121-69 121 69 0 139-121 69z m224-128l-103-58-102 58 0 117 102 59 103-59z"/>
<glyph unicode="&#100;" d="M321 228l-2-7c-4-14-13-27-25-35l-7-5 99-172 8 5c36 21 65 51 86 87 21 36 32 76 32 118l0 9z m143-118c-17-31-42-57-71-76l-82 142c11 9 19 20 24 34l158 0c-1-35-11-70-29-100z m-88 361c-36 21-77 32-119 32-41 0-82-11-118-32l-8-4 98-170 7 2c14 5 29 5 42 0l8-2 98 170z m-99-152c-6 2-13 2-20 2-6 0-13 0-19-2l-82 141c31 16 66 24 101 24 35 0 70-8 101-24z m-82-98l-1 7-194 0 0-9c0-42 11-82 32-118 21-36 50-67 86-87l8-5 100 173-7 5c-11 8-20 21-24 34z m-75-187c-30 19-55 45-72 76-18 30-28 65-29 100l161 0c5-13 12-24 22-33z m137 232c-15 0-27-12-27-28 0-15 12-27 27-27 16 0 28 12 28 27 0 16-12 28-28 28z"/>
<glyph unicode="&#101;" d="M486 215l-148 134c-4 4-10 4-13 0l-129-125-25 15c1 1 2 1 2 2l137 196c2 3 2 6 2 9-1 2-3 5-6 6l-127 59c-4 2-9 1-12-3l-145-186c0 0 0 0 0 0-1-1-1-2-2-3 0 0 0 0 0-1 0 0 0 0 0-1-1-5-3-123 25-166 25-38 152-128 179-146 1-3 4-5 8-5l182 0c3 0 6 2 8 4 0 1 5 5 8 26 3 15-1 128 0 147 18 19 44 20 50 21 4 0 7 3 9 7 1 3 0 8-3 10z m-308 275l109-51-130-187c0-1-1-2-1-3l-112 70z m-117-328c-17 26-26 98-23 138l149-94c1-2 3-4 6-5 19-8 38-19 41-24l0-109c1-17 0-36-2-45-49 33-151 109-171 139z m353 17c-1-3-3-5-3-7 1-43 1-112 0-123-2-10 0-24-3-29l-157 0c4 16 3 38 2 49l0 108c0 14-19 26-40 36l119 116 130-118c-14-10-37 0-48-32z"/>
<glyph unicode="&#102;" d="M43 345c-18-6-30-15-37-28-8-15-8-35-1-59 14-44 44-76 75-76 4 0 8 1 12 2 16 5 28 20 34 42 4 21 3 45-4 69-14 44-41 62-79 50z m65-114c-4-16-12-26-22-29-2-1-4-1-6-1-22 0-46 27-57 63-6 19-6 34 0 44 4 8 12 15 25 19 6 1 12 2 17 2 7 0 27 0 39-40 6-20 8-41 4-58z m80 37c34 0 61 42 61 96 0 47-20 69-61 69-41 0-61-22-61-69 0-54 27-96 61-96z m0 146c26 0 42-8 42-50 0-42-19-77-42-77-23 0-42 35-42 77 0 42 17 50 42 50z m120-127c2-1 4-1 7-1 32 0 63 43 73 102 14 80-26 96-44 100-4 0-7 1-11 1-19 0-53-10-65-79-11-63 7-117 40-123z m-22 120c8 40 24 63 47 63 3 0 5 0 8-1 27-5 37-32 29-77-10-54-36-87-55-87-2 0-3 0-4 0-19 4-34 46-25 102z m171-79c-6 1-11 1-16 1-25 0-57-13-69-74-12-63 9-118 48-125 2-1 5-1 8-1 36 0 70 42 81 100 14 74-27 94-52 99z m34-96c-10-50-41-89-68-84-27 6-42 53-33 104 8 39 25 58 51 58 4 0 8 0 12-1 34-6 46-32 38-77z m-243 37c-24 0-104-57-104-123 0-63 0-123 104-123 105 0 105 60 105 123 0 66-80 123-105 123z m0-227c-85 0-85 41-85 104 0 57 73 104 85 104 13 0 86-47 86-104 0-63 0-104-86-104z"/>
<glyph unicode="&#103;" d="M461 207l-1 7-7 1c0 1-12 2-29 2-37 0-89-7-123-41-21-21-37-45-46-69-9 24-25 48-46 69-34 34-85 41-123 41-17 0-28-1-29-2l-7-1-1-7c0-4-13-99 40-152 34-34 75-54 111-54 19 0 35 6 46 17 4 4 7 8 9 12 3-4 6-8 9-12 12-11 28-17 47-17 0 0 0 0 0 0 35 0 77 20 111 54 52 53 40 148 39 152z m-228-175c-8-8-19-12-33-12-30 0-68 19-98 49-38 38-37 106-35 128 5 1 11 1 19 1 28 0 79-4 110-35 23-23 39-50 46-76 6-24 3-43-9-55z m175 37c-30-30-67-49-97-49l0 0c-14 0-26 4-34 12-11 12-15 31-8 55 6 26 22 53 45 76 31 31 82 35 110 35 8 0 14 0 19-1 2-22 3-90-35-128z m-164 137c3 0 5 0 7 0l4-3 4 3c2 0 5 0 7 0 79 6 141 71 141 151 0 80-62 146-141 152-2 0-5 0-7 0l-4 3-4-3c-2 0-4 0-7 0-78-6-141-72-141-152 0-80 63-145 141-151z m-74 57c5 4 13 10 22 16 11-20 25-38 36-50-26 7-48 24-58 34z m19 94c0 19 5 36 11 52 16-8 35-14 55-14 20 0 39 6 55 14 6-16 11-33 11-52 0-18-5-35-11-51-16 8-35 13-55 13-20 0-39-5-55-13-6 16-11 33-11 51z m66-129c-10 10-31 32-46 61 13 6 29 11 46 11 17 0 33-5 47-11-16-29-37-51-47-61z m27 1c11 12 25 29 36 50 10-6 17-12 22-16-10-10-32-27-58-34z m106 128c0-32-12-61-31-84-5 5-16 14-30 24 7 18 13 39 13 60 0 22-6 43-13 61 14 9 25 19 30 24 19-23 31-52 31-85z m-48 95c-5-4-12-11-22-17-11 21-25 39-36 51 26-8 48-25 58-34z m-85 35c10-10 31-32 47-61-14-7-30-12-47-12-17 0-33 5-46 12 15 29 36 51 46 61z m-27-1c-11-12-25-30-36-51-9 7-17 13-22 17 10 9 32 26 58 34z m-75-44c5-5 16-15 31-24-8-18-14-39-14-61 0-21 6-42 14-60-15-10-26-19-31-24-19 23-31 52-31 84 0 33 12 62 31 85z"/>
<glyph unicode="&#104;" d="M264 452l-5 4-5-4c-3-2-66-48-66-106 0-64 16-100 47-107l8-2 16 54 16-54 8 2c31 7 47 43 47 107 0 58-63 104-66 106z m23-193l-28 93-28-93c-21 12-26 53-26 87 0 41 40 76 54 88 14-12 53-47 53-88 0-34-4-75-25-87z m223 111l-1 6-6 1c-1 0-12 2-27 2-29 0-69-6-95-32-46-45-60-82-43-108l5-7 50 27-27-49 7-5c7-4 15-6 24-6 23 0 51 16 85 50 41 42 28 118 28 121z m-41-109c-33-34-61-49-80-44l47 86-86-48c-7 24 19 56 43 80 22 22 57 27 83 27 7 0 13-1 18-1 1-18 4-71-25-100z m-433 118c-15 0-26-2-27-2l-6-1-1-6c0-3-13-80 29-121 33-34 61-50 85-50 8 0 16 2 24 6l6 5-26 49 49-27 5 7c17 26 3 63-42 108-26 26-67 32-96 32z m126-124l-86 48 47-86c-19-5-47 10-80 44-29 29-26 82-24 100 4 0 10 1 17 1 26 0 61-5 83-27 24-24 50-56 43-80z m104-37c0 4-4 8-8 8-5 0-8-4-9-8l-24-151c-1-3 0-6 2-7 1-2 4-3 6-3l49 0c0 0 0 0 0 0 5 0 9 3 9 8 0 1-1 2-1 3z m-22-144l14 87 14-87z"/>
<glyph unicode="&#105;" d="M240 412c13 0 36-14 52-39 9-12 13-20 15-25l-45-33 141-43 22 137-40-16-1 0c-9 13-37 54-59 76-29 29-48 38-76 38-31 0-51-20-76-45-17-17-55-59-55-75 0-17 67-53 77-53 7 0 11 4 11 10 2 12 25 65 34 68z m-51-57c-14 7-43 26-51 33 4 10 25 37 48 61 27 25 41 39 63 39 22 0 37-8 62-32 25-25 59-77 59-78l3-4 16 0 11 4-13-81-84 25 22 18 0 4c0 4-1 15-18 40-18 27-46 47-67 47-22 0-44-52-51-76z m314-163c-6 24-23 77-36 85-2 1-5 2-7 2-13 0-77-29-81-43-1-5 1-10 5-12 9-7 43-54 41-64-6-11-31-23-60-24-15-1-25 0-29 1l-6 55-110-98 107-89 3 45 1 1c16 0 67 2 98 9 35 9 57 19 73 44 16 27 9 55 1 88z m-17-78c-12-18-26-26-62-35-34-8-98-9-99-9l-5 0-9-14-1-12-60 51 65 57 3-28 4-3c3-1 12-6 44-4 33 1 65 15 76 34 4 6 6 18-16 52-7 10-17 22-24 30 13 9 45 24 56 26 5-8 18-39 26-72 9-34 13-54 2-73z m-303 30c-2 0-4-1-5-2-6-3-42-12-64-12-9 0-12 1-12 1-7 11-8 38 2 65 6 14 11 22 13 26l53-18-44 140-126-60 40-21 0-1c-6-16-26-62-32-93-6-35-7-59 11-84 17-25 46-31 80-37 22-4 48-7 67-7 17 0 23 2 26 5 14 9 7 77 3 87-3 9-8 11-12 11z m-4-83c-2 0-6-1-13-1-18 0-43 3-64 7-35 6-55 11-67 29-13 17-14 34-8 70 7 34 33 92 33 93l2 5-9 13-11 6 72 34 26-83-27 9-4-2c-3-2-11-10-23-38-12-31-12-65 0-83 5-6 13-9 28-9 19 0 48 6 64 11 3-16 4-50 1-61z"/>
<glyph unicode="&#106;" d="M117 330l-3-21 43-7-70-77-45 91 51-8 2 9c29 134 131 155 136 155l-2 10 1-10-3 20c-5-1-115-22-150-161l-72 12 77-153 115 126z m217-227l19 7-15 41 102-22-57-85-18 49-9-3c-131-41-200 37-203 40l-16-13c3-4 77-88 216-49l25-68 96 142-168 37z m106 338l48 54-172 17 47-164 54 60-16 14-29-33-28 100 102-10-35-39 7-7c99-95 62-192 60-196l10-4-10 4 19-7c2 4 43 108-57 211z"/>
<glyph unicode="&#107;" d="M328 417l9 15c-104 56-181-9-182-10l12-13c1 1 69 58 161 8z m14 67l24-79-71-16 3-18 91 20-30 99z m-158-389l-9-16c31-17 61-23 86-23 58 0 95 30 96 31l-12 13c-1 0-69-56-161-5z m34 27l-4 18-91-19 29-99 17 5-23 81z m-143 191l-16 8c-50-106 20-178 21-179l13 13c-1 1-63 64-18 158z m23 62l-98-35 6-17 80 28 20-69 17 5z m339-186l16-7c52 104-17 178-18 178l-13-12c2-3 61-65 15-159z m69-10l-80-28-19 70-17-4 24-89 98 34z"/>
<glyph unicode="&#108;" d="M413 383l-17 8c24 67-12 114-14 116l-4 5-6-2c-66-22-99-55-112-71l-19 19-7-9c-23-30-51-77-62-96l-28 18-5-8c-89-138 1-220 1-221l11-10 5 14c29 88 69 149 100 186-39-90-52-205-52-211l-1-2 2-3c1-3 7-11 28-11 17 0 40 5 69 16 80 30 100 127 101 131l2 8-25 8c32 48 33 107 33 109l0 6z m-55-114l-9-11 33-11c-6-22-29-87-87-108-49-19-66-16-72-14 4 30 26 182 83 256l39 50-52-36c-4-3-92-67-150-228-18 25-48 86 7 178l28-19 5 8c1 1 33 57 60 95l20-20 6 11c0 0 26 42 102 70 8-14 25-51 4-100l-3-8 21-11c-1-16-6-66-35-102z m-176-103c-5-14-46-136-41-166l19 3c-3 19 23 106 40 157z"/>
<glyph unicode="&#109;" d="M299 401c-19 0-36-6-47-17-11-10-28-19-44-27-24-13-49-26-59-47-15-34-9-60 28-132 19-37 17-55 16-72-1-16-2-31 12-54 23-38 70-52 103-52 10 0 19 1 26 4 11 3 25 13 25 42 0 18-6 39-10 49-3 8-9 18-17 29-20 28-44 63-21 97 13 19 29 30 43 39 23 16 45 31 32 76-14 45-54 65-87 65z m44-126c-14-10-32-22-47-44-30-44 1-88 21-117 6-10 13-19 15-24 3-10 8-28 8-44 0-22-9-25-12-26-5-1-12-2-20-2-30 0-69 13-88 43-11 18-10 29-9 44 1 18 3 40-18 81-36 71-38 91-27 117 7 15 29 27 51 38 17 9 35 19 48 31 7 7 20 11 34 11 25 0 58-13 69-52 9-33-2-40-25-56z m21 237c-17 1-31-23-33-52-1-30 11-54 27-55 17-1 31 23 33 52 1 30-11 54-27 55z m-78-80c10 0 18 8 18 18 0 9-8 17-18 17-11 0-19-8-19-17 0-10 8-18 19-18z m-55-27c10 0 18 8 18 18 0 10-8 18-18 18-10 0-18-8-18-18 0-10 8-18 18-18z m-46-27c10 0 18 8 18 18 0 10-8 18-18 18-10 0-18-8-18-18 0-10 8-18 18-18z m-27-18c0 10-8 18-18 18-11 0-19-8-19-18 0-10 8-18 19-18 10 0 18 8 18 18z"/>
<glyph unicode="&#110;" d="M335 0c-3 0-5 0-5 0l-16 1 9 14c14 23 33 63 28 76 0 2-1 2-2 3-10 3-20 4-32 5-24 2-51 5-67 30-11 16-14 39-17 59-1 10-3 25-6 29-6-6-18-33-26-50-17-41-28-64-44-64-3 0-5 1-7 2-16 7-30 32-38 49-27-63 38-136 39-137l15-15-22 0c-5 0-49 2-112 107-35 57-11 125 16 171 24 43 66 92 84 92 3 0 6-1 8-3 7-6 6-19 4-48 0 1 1 2 1 3 42 104 112 176 115 179l8 9 7-10c2-3 43-66 66-211 5-36 15-58 27-58 20 0 52 53 58 70 10 31 20 52 35 52 17 0 29-21 36-127 4-80-12-141-49-181-42-44-97-47-113-47z m-108 237c19 0 23-23 26-47 2-17 5-38 13-51 12-16 31-18 53-21 12-1 24-2 36-6 7-2 12-7 15-14 7-20-10-57-22-78 21 2 57 10 85 41 34 35 49 91 44 166-5 80-13 102-16 108-3-4-9-13-17-38-5-15-40-84-76-84-35 0-44 57-47 75-16 107-44 169-56 192-20-23-70-83-102-162-15-39-20-45-29-45l-4 0-4 3c-5 6-4 15-2 43 1 8 2 21 2 29-18-15-59-62-80-118-17-44-16-82 2-112 26-42 48-67 64-80-21 35-43 93-7 143l10 15 7-17c7-18 22-48 35-56 7 6 19 34 27 52 17 41 27 62 43 62z"/>
<glyph unicode="&#111;" d="M498 317l-37-47c-7 120-108 216-230 216-127 0-231-103-231-230 0-127 104-230 231-230l0 18c-118 0-213 95-213 212 0 117 95 212 213 212 116 0 211-94 213-209l-46 58-14-11 64-81 64 81z m-276-36l-7-8c-6-8-61-73-61-108 0-37 31-67 68-67 37 0 67 30 67 67 0 35-54 100-60 108z m0-165c-28 0-50 22-50 49 0 21 32 65 50 88 18-23 50-67 50-88 0-27-23-49-50-49z m-91 280l-7 8-7-8c-4-5-47-57-47-85 0-29 24-54 54-54 30 0 55 25 55 54 0 28-43 80-48 85z m-7-121c-20 0-36 16-36 37 0 13 20 44 36 65 17-21 37-52 37-65 0-21-16-37-37-37z m187 147l-7-8c-5-6-48-57-48-85 0-30 25-54 55-54 30 0 54 24 54 54 0 28-43 79-48 85z m0-129c-21 0-37 16-37 36 0 14 20 44 37 65 16-20 36-51 36-65 0-20-16-36-36-36z"/>
<glyph unicode="&#112;" d="M483 464c0 2-1 4-2 5-3 4-8 6-13 3-4-2-6-7-5-12l0 0c0-3-7-23-88-57-25-11-45-23-58-36-7 16-20 26-32 30 1 6 2 13-1 21-5 18-23 35-54 48-46 19-54 31-55 34 1 4-1 9-6 11-4 2-10 1-13-3 0-1-1-3-1-5-12-36-9-86 35-111 22-11 42-17 59-17 11 0 19 2 24 5 11-3 25-11 28-32-4-5-6-11-8-16-7-26 6-45 7-46 0 0 0-1 1-1 0 0 1-1 2-2-15-11-32-32-33-62-19 12-41 24-66 35-147 62-151 96-151 100 1 2 1 2 1 2 2 5 0 10-5 13-5 2-10 0-13-4-1-1-2-3-2-7-7-22-55-190 83-265 54-29 101-45 141-45 0 0 0 0 0 0 45 0 64 20 65 21 0 1 1 2 1 3 0 0 2 2 4 6 8-3 29-15 55-74 2-4 5-6 9-6 2 0 3 0 4 1 5 2 8 8 6 13-28 61-52 80-67 85 3 12 4 27-1 44-6 22-21 43-43 62-8 49 32 66 34 67 1 0 1 1 2 1 5 0 10-1 16-1 25 0 55 9 88 27 86 47 57 151 52 165z m-283-54c-29 16-32 45-30 66 11-9 28-19 52-29 31-13 40-26 43-34 1-5 1-8 0-11-2 0-3 0-4 0-5 0-9-3-10-7-1 0-2 0-2 0-13 0-30 5-49 15z m114-272c6-19 2-34-1-43-1 0-1-1-1-1-2-4-3-7-4-8-3-2-18-13-50-13l0 0c-37 0-81 14-131 41-99 54-92 159-81 213 18-23 61-52 150-90 67-28 108-63 118-99z m107 179c-30-17-56-25-78-25-17 0-25 5-27 7-2 3-7 13-3 27 0 2 1 5 2 7 4 1 6 5 6 9 0 0 0 0 0 0 12 15 32 30 62 42 42 18 71 35 87 50 5-33 4-89-49-117z"/>
<glyph unicode="&#113;" d="M506 392c-1 3-5 5-9 5-4-1-7-3-8-7-10-29-38-49-69-49-37 0-69 30-72 67 0 5-5 9-10 9-5 0-9-4-10-9-2-37-34-67-72-67-38 0-70 30-72 67-1 5-6 9-10 9-5 0-10-4-10-9-3-37-35-67-72-67-31 0-59 20-69 49-1 4-4 6-8 7-4 0-8-2-9-5-4-7-6-15-6-22l0-228c0-26 21-47 47-47l418 0c26 0 47 21 47 47l0 228c0 7-2 15-6 22z m-13-250c0-15-13-28-28-28l-418 0c-15 0-28 13-28 28l0 216c17-22 44-36 73-36 35 0 67 21 82 52 15-31 46-52 82-52 36 0 67 21 82 52 15-31 47-52 82-52 29 0 56 14 73 36z m-161 48c-37 0-67 29-67 66l-18 0c0-37-30-66-67-66-36 0-66 29-66 66l-19 0c0-47 38-85 85-85 33 0 62 19 76 46 14-27 43-46 76-46 47 0 85 38 85 85l-19 0c0-37-30-66-66-66z"/>
<glyph unicode="&#114;" d="M165 349c-67 0-122-55-122-122 0-58 40-107 96-119l0-82c0-14 12-26 26-26 14 0 26 12 26 26l0 82c56 12 95 61 95 119 0 67-54 122-121 122z m16-225l-7-2 0-96c0-5-4-9-9-9-5 0-9 4-9 9l0 96-7 2c-51 8-88 51-88 103 0 58 46 105 104 105 57 0 104-47 104-105 0-52-37-95-88-103z m216 379l-6 9-7-9c-3-4-72-93-72-206 0-92 21-171 52-199l0-72c0-14 12-26 27-26 14 0 26 12 26 26l0 72c31 28 52 107 52 199 0 113-69 202-72 206z m6-394l-4-2 0-81c0-5-4-9-8-9-5 0-9 4-9 9l0 81-4 2c-24 18-48 89-48 188 0 86 43 160 61 186 17-26 60-100 60-186 0-99-24-170-48-188z"/>
<glyph unicode="&#115;" d="M430 512l-307 0c-40 0-82-22-82-61l0-94c-18-4-31-21-31-40 0-22 19-41 41-41l123 0c23 0 41 19 41 41 0 19-13 36-31 40l0 12 246 0c40 0 72 32 72 71 0 40-32 72-72 72z m0-123l-266 0 0-51 10 0c11 0 21-9 21-21 0-11-10-20-21-20l-123 0c-11 0-20 9-20 20 0 12 9 21 20 21l10 0 0 113c0 26 32 41 62 41l307 0c28 0 51-23 51-52 0-28-23-51-51-51z m-317-123c-60 0-103-108-103-164 0-56 46-102 103-102 56 0 102 46 102 102 0 56-43 164-102 164z m0-246c-46 0-82 37-82 82 0 52 41 144 82 144 40 0 82-92 82-144 0-45-37-82-82-82z m-41 103l-21 0c0-40 32-72 72-72l0 21c-28 0-51 23-51 51z m20 215l41 0 0 20-41 0z"/>
<glyph unicode="&#116;" d="M261 512l-10 0c-70 0-128-57-128-128l0-256c0-71 58-128 128-128l10 0c71 0 128 57 128 128l0 256c0 71-57 128-128 128z m108-384c0-60-48-108-108-108l-10 0c-60 0-108 48-108 108l0 256c0 60 48 108 108 108l10 0c60 0 108-48 108-108z m-113 98c-52 0-94-42-94-93 0-52 42-94 94-94 52 0 94 42 94 94 0 51-42 93-94 93z m0-167c-41 0-74 33-74 74 0 41 33 74 74 74 41 0 74-33 74-74 0-41-33-74-74-74z m0 414c-52 0-94-42-94-94 0-51 42-93 94-93 52 0 94 42 94 93 0 52-42 94-94 94z m0-168c-41 0-74 33-74 74 0 41 33 74 74 74 41 0 74-33 74-74 0-41-33-74-74-74z m-44 62l19-5 10 39-19 5z m59 0l19-5 10 39-19 5z m-59-256l19-5 10 39-19 5z m59 0l19-5 10 39-19 5z"/>
<glyph unicode="&#117;" d="M367 512l-222 0c-80 0-145-65-145-145l0-222c0-80 65-145 145-145l222 0c80 0 145 65 145 145l0 222c0 80-65 145-145 145z m123-367c0-68-55-123-123-123l-222 0c-68 0-123 55-123 123l0 222c0 68 55 123 123 123l222 0c68 0 123-55 123-123z m-234 256c-80 0-145-65-145-145 0-80 65-145 145-145 80 0 145 65 145 145 0 80-65 145-145 145z m0-267c-68 0-122 54-122 122 0 68 54 122 122 122 68 0 122-54 122-122 0-68-54-122-122-122z m-66 92l21-7 22 67-21 7z m89 0l21-7 22 67-21 7z"/>
<glyph unicode="&#118;" d="M434 51c-12 17-14 40-6 68 8 32 5 58-10 79-19 27-54 37-74 40 34 61 2 162-54 210-14 12-27 17-38 17-19 0-32-14-45-33l-93 80-12-14 95-82c0 0-1-1-1-2-9-14-19-29-31-44-12-15-25-27-37-38-1-1-2-1-2-2l-96 81-11-14 93-80c-15-14-25-28-25-44 0-14 8-27 24-41 33-27 83-44 129-44l0 0c39 0 70 11 91 33 12-1 53-7 72-34 12-16 14-37 7-63-9-33-6-62 9-84 24-35 71-40 73-40l2 19c-1 0-41 4-60 32z m-113 186c-17-20-46-32-81-32l0 0c-42 0-88 16-117 41-11 10-17 19-17 27-1 13 15 28 34 45 12 11 27 24 39 40 13 15 23 32 32 46 15 24 27 43 40 43 8 0 16-5 27-14 53-45 84-147 43-196z"/>
<glyph unicode="&#119;" d="M184 187c39-40 72-59 100-59 10 0 19 2 28 8l8 5-32 58 59-32 5 8c20 31 4 75-49 129-31 31-78 38-112 38-19 0-31-2-32-2l-7-2-1-7c-1-4-16-94 33-144z m-14 133c5 1 12 1 21 1 30 0 71-5 97-31 28-29 58-68 51-95l-101 56 54-102c-22-6-54 13-94 52-34 35-31 98-28 119z m-31 192l-78-88 0-424 390 0 0 512z m291-492l-348 0 0 396 66 76 282 0z"/>
<glyph unicode="&#120;" d="M256 113c56 0 102 46 102 102 0 56-43 164-102 164-59 0-102-108-102-164 0-56 46-102 102-102z m0 245c41 0 82-92 82-143 0-45-37-82-82-82-45 0-82 37-82 82 0 51 41 143 82 143z m10-194l0 20c-28 0-51 23-51 52l-20 0c0-40 32-72 71-72z m-127 348l-78-88 0-424 390 0 0 512z m291-492l-348 0 0 396 66 76 282 0z"/>
<glyph unicode="&#121;" d="M54 289l-21-242c-1-12 3-24 11-33 8-9 19-14 32-14l167 0c12 0 24 5 32 14 8 9 12 21 11 33l-21 242z m207-263c-4-5-11-7-18-7l-167 0c-8 0-14 2-19 7-4 6-6 12-6 20l20 224 177 0 19-224c1-8-1-14-6-20z m187 179l-117 0-31-169c-1-9 3-19 9-25 6-7 14-11 24-11l114 0c9 0 18 4 24 11 6 6 9 16 8 26z m9-182c-2-3-6-4-10-4l-114 0c-4 0-8 1-11 4-2 3-4 7-3 11l28 152 86 0 28-152c1-4-1-8-4-11z m-338 372c-7-9-10-20-10-32 0-31 24-56 55-56 20 0 38 11 48 28 30 1 53 26 53 56 0 7-1 14-4 20 14 11 23 27 23 45 0 31-25 56-56 56-19 0-36-10-46-26-8 5-18 7-27 7-31 0-56-25-56-55 0-17 8-32 20-43z m36 80c9 0 17-4 24-10l10-9 5 13c5 15 19 24 34 24 21 0 37-16 37-37 0-14-7-26-20-33l-9-4 6-9c3-6 5-12 5-19 0-21-17-37-37-37 0 0-1 0-1 0-1 0-1 0-2 0l-7 1-2-7c-6-13-19-22-34-22-20 0-37 17-37 37 0 10 4 20 12 27l9 9-11 6c-12 7-19 19-19 33 0 20 16 37 37 37z m182-203c0-25 20-45 45-45 16 0 31 8 39 21 23 2 42 22 42 46 0 5-1 10-3 15 11 9 18 21 18 35 0 26-21 46-46 46-14 0-28-8-36-20-7 4-14 5-21 5-25 0-45-20-45-45 0-13 5-25 14-33-4-8-7-16-7-25z m38 85c8 0 14-4 18-7l10-9 5 13c3 10 13 17 24 17 15 0 27-12 27-26 0-10-5-20-14-24l-9-5 5-8c2-4 4-8 4-13 0-15-12-25-27-25l0 0-9-1-2-8c-4-9-14-16-25-16-14 0-26 12-26 27 0 7 3 14 8 20l9 8-11 7c-8 4-14 13-14 23 0 15 12 27 27 27z m-285-301l138 0 0 18-138 0z m277-19l46 0 0 19-46 0z"/>
<glyph unicode="&#122;" d="M353 389l-7 1c-1 1-13 2-31 2-32 0-78-6-107-36-51-52-67-94-48-124l5-7 56 31-30-57 8-5c8-5 17-7 27-7 27 0 58 18 96 57 47 47 33 135 32 138z m-45-131c-38-39-69-56-90-51l52 98-97-54c-7 27 22 64 49 91 25 25 64 31 93 31 9 0 16-1 21-1 2-21 5-81-28-114z m174 190l-452 0c-17 0-30-13-30-30l0-265c0-17 13-30 30-30l216 0 0-39-69 0 0-20 158 0 0 20-69 0 0 39 216 0c17 0 30 13 30 30l0 265c0 17-13 30-30 30z m10-295c0-6-4-10-10-10l-452 0c-6 0-10 4-10 10l0 265c0 6 4 10 10 10l452 0c6 0 10-4 10-10z"/>
<glyph unicode="&#65;" d="M203 102c0 0 0-1 0 0z m66 131l-129 88c-4 2-8 2-11 0l-125-89c-3-2-5-6-4-10 2-3 5-6 9-6l36 0 0-74c0-3 1-6 4-8l187-111c2-1 3-1 5-1 2 0 4 1 6 2 2 2 4 6 2 10l-28 68 0 114 44 0c0 0 0 0 0 0 5 0 9 4 9 9 0 4-2 7-5 8z m-54 1c-5 0-12-4-12-9l0-123 21-51-161 96 0 78c0 5-4 9-9 9l-17 0 98 69 101-69z m297 56c-1 3-5 6-9 6l-31 0 0 74c0 3-2 6-5 8l-187 111c-3 2-7 1-10-1-3-2-4-6-3-10l24-68 1-114-45 0c-3 0-7-3-8-7-1-3 0-7 3-9l131-89c1-1 3-1 5-1 2 0 3 0 5 1l125 89c4 2 5 6 4 10z m-134-81l-102 69 25 0c5 0 8 4 8 9l0 123c0 1 1-1 1 0l-18 51 162-96 0-78c0-5 4-9 9-9l12 0z"/>
<glyph unicode="&#66;" d="M100 147c-25 0-45-20-45-46 0-25 20-46 45-46 25 0 46 21 46 46 0 26-21 46-46 46z m0-74c-15 0-27 13-27 28 0 15 12 28 27 28 15 0 28-13 28-28 0-15-13-28-28-28z m210 74c-25 0-45-20-45-46 0-25 20-46 45-46 25 0 46 21 46 46 0 26-21 46-46 46z m0-74c-15 0-27 13-27 28 0 15 12 28 27 28 15 0 28-13 28-28 0-15-13-28-28-28z m-64 37l-82 0c-5 0-9-4-9-9 0-5 4-9 9-9l82 0c5 0 9 4 9 9 0 5-4 9-9 9z m265 289c-1 3-2 5-4 6-2 2-5 2-7 1l-9-1-10 45c-1 5-5 8-10 7-5-1-8-6-7-11l9-45-36-8-9 45c-1 5-6 9-11 7-5-1-8-5-7-10l9-46-8-2c-5-1-9-6-7-11 5-24 26-43 51-43 5-16 6-44-32-77-19-16-30-32-35-46-13 30-49 57-83 72-44 19-83 20-109 2-45-30-61-66-66-81-91-5-128-95-129-98-1-3-1-7 1-9 1-3 4-4 7-4l28 0c5 0 9 4 9 9 0 5-4 9-9 9l-13 0c13 24 47 72 109 74 1-1 3-1 4-1l239 0c7-32 19-58 27-73l-20 0c-5 0-9-4-9-9 0-5 4-9 9-9l37 0c3 0 6 2 8 5 1 3 1 7-1 10 0 0-10 13-19 34 3 4 3 9 1 12-2 2-31 40 26 89 42 37 44 72 38 93 27 8 44 36 38 64z m-362-198c5 15 20 43 57 68 20 14 54 12 92-4 35-16 64-41 73-64z m317 151c-1 3-3 4-3 5-3 4-9 4-13 1-1-2-2-4-3-6-10 3-18 10-23 19l62 14c0 0 0 0 0 0 0 0 0 0 0 0l8 1c-1-16-12-30-28-34z"/>
<glyph unicode="&#67;" d="M442 497l-386 0-3-3c-22-20-53-111-53-228 0-112 29-226 53-248l3-3 386 0c46 0 70 121 70 241 0 120-24 241-70 241z m0-462l-377 0c-17 22-45 120-45 231 0 108 27 190 45 211l377 0c20 0 50-86 50-221 0-135-30-221-50-221z m-261 362l-81 0 0-141 81 0z m-20-121l-41 0 0 100 41 0z m170-20l81 0 0 141-81 0z m20 120l41 0 0-100-41 0z m-20-210l-150 0 0-10-10 0c0-41 38-86 85-86 47 0 85 45 85 86l-10 0z m-75-76c-32 0-59 28-64 56l128 0c-5-28-32-56-64-56z"/>
<glyph unicode="&#68;" d="M510 187l-2 6-6 1c-1 1-12 2-29 2-31 0-73-6-101-34-48-50-63-90-45-118l5-8 53 30-29-54 7-4c8-5 17-8 26-8 25 0 55 18 90 55 45 45 31 128 31 132z m-44-119c-35-37-65-53-85-48l50 93-92-51c-7 25 21 60 46 87 23 23 61 29 88 29 8 0 15-1 19-1 2-20 5-77-26-109z m-392 211l317 0 0-55 18 0 0 55 47 0c4 0 7 3 8 6 2 4 1 8-2 10l-223 214c-4 4-9 4-13 0l-223-214c-3-2-4-6-2-10 1-3 5-6 8-6l47 0 0-214 214 0 0 19-196 0z m-42 19l201 192 200-192z"/>
<glyph unicode="&#69;" d="M471 131l41 0-54 361-404 0-12-80 0 0 0-3-42-278 42 0 0-91-40 0 0-20 59 0 0 111 390 0 0-111 59 0 0 20-39 0z m-80 20l-8 120 78 0 0 20-79 0-6 101 77 0 36-241z m-225 241l85 0 0-101-91 0z m-26-101l-96 0 15 101 87 0z m131 121l0 60 80 0 4-60z m85-20l6-101-91 0 0 101z m-105 20l-84 0 4 60 80 0z m0-141l0-120-100 0 8 120z m20 0l92 0 8-120-100 0 0 120z m179 141l-75 0-4 60 70 0z m-379 60l80 0-4-60-85 0z m-29-198l0-3 97 0-8-120-108 0z"/>
<glyph unicode="&#70;" d="M144 166l61 25-38-54 8-6c29-24 73-12 133 35 54 44 50 136 50 139l0 8-8 2c-3 1-92 25-146-18-60-48-81-89-65-123z m73 115c37 30 99 20 121 16-1-22-5-84-43-115-31-25-73-51-99-40l66 94-107-43c-4 28 30 62 62 88z m244 149l0 41-123 0 0-41-164 0 0 41-123 0 0-41-51 0 0-389 512 0 0 389z m-103 21l82 0 0-21-82 0z m-286 0l82 0 0-21-82 0z m420-390l-472 0 0 349 472 0z"/>
<glyph unicode="&#71;" d="M265 417l0 95-18 0 0-95-156 0 0-417 330 0 0 417z m0-53l0 15c5-3 8-8 8-15 0-9-7-17-17-17-10 0-17 8-17 17 0 7 3 12 8 15l0-15z m139-347l-296 0 0 382 139 0 0-1c-15-4-26-17-26-34 0-19 16-34 35-34 19 0 35 15 35 34 0 17-11 30-26 34l0 1 139 0z m-139 269l-122 0 0-17 122 0z m-122-52l182 0 0 18-182 0z m0-34l182 0 0 17-182 0z"/>
<glyph unicode="&#72;" d="M310 473l0 39-98 0 0-39-79 0 0-473 246 0 0 473z m-79 19l59 0 0-19-59 0z m128-472l-206 0 0 433 206 0z m-29 216l-30 0 0 79-19 0 0-79-50 0 0 79-19 0 0-79-30 0 0-147 148 0z m-20-128l-108 0 0 109 108 0z"/>
<glyph unicode="&#73;" d="M228 303l-2 19-53-6 83 148 37-66c-5-5-8-11-8-19 0-16 13-28 28-28 16 0 29 12 29 28 0 16-13 28-29 28-1 0-2 0-3 0l-54 96-101-179-14 57-19-4 21-84z m-70 11l0 0 0 0z m96-189l37-39-258 0 74 123c2 0 4 0 5 0 16 0 29 12 29 28 0 16-13 28-29 28-15 0-28-12-28-28 0-7 2-13 7-18l-91-152 294 0-39-45 15-12 56 66-58 62z m125 167l58-8 2 19-85 11-21-84 18-5 14 53 114-192-53 0c-3 11-14 19-26 19-13 0-23-8-27-19l-2 0 0-19 2 0c4-11 14-19 27-19 12 0 23 8 26 19l86 0z"/>
<glyph unicode="&#74;" d="M256 192c-124 0-256-29-256-82 0-54 132-83 256-83 124 0 256 29 256 83 0 53-132 82-256 82z m0-146c-140 0-238 33-238 64 0 30 98 64 238 64 140 0 238-34 238-64 0-31-98-64-238-64z m0 107c-55 0-149-9-149-43 0-35 94-44 149-44 55 0 149 9 149 44 0 34-94 43-149 43z m0-69c-81 0-129 17-130 26 1 8 49 25 130 25 81 0 129-17 130-25-1-9-49-26-130-26z m0 145c50 0 91 41 91 91 0 42-35 165-91 165-56 0-91-123-91-165 0-50 41-91 91-91z m0 237c36 0 73-100 73-146 0-40-33-73-73-73-40 0-73 33-73 73 0 46 37 146 73 146z m-11-191l4 18c-17 4-30 19-30 36l-18 0c0-26 19-48 44-54z"/>
<glyph unicode="&#75;" d="M345 0l-192 0c-4 0-8 3-9 7-6 31-23 84-38 96-1 0-1 1-2 3-2 4-57 114-34 218 0 4 4 5 8 5 0 0 0 0 0 0 5 0 8-1 9-5 1-1 31-119 89-177 12 37 42 149 6 274-1 5 1 10 6 12 5 1 10-1 11-6 3-7 62-160 69-259 29 57 81 187 49 333-1 4 1 9 6 10 4 2 9 0 11-4 3-7 73-155 18-318l82 30c4 1 8 0 10-3 3-4 3-8 0-12-1 0-45-54-63-98-17-44-26-98-27-98 0-5-4-8-9-8z m-184 18l177 0c3 17 12 59 26 95 11 27 31 57 46 78l-71-26c-3-1-7 0-9 2-3 3-4 7-2 10 34 87 29 171 17 232 1-159-78-280-79-282-3-3-7-5-11-3-4 1-6 5-6 9 6 46-13 123-32 186 5-107-27-186-29-190-1-3-3-5-6-6-3 0-6 0-8 2-46 38-76 109-92 154-1-77 32-152 38-164 20-18 35-76 41-97z"/>
<glyph unicode="&#76;" d="M461 251c0 114-92 206-205 206-2 0-4 0-6 0l16 48-20 7-19-57c-99-14-176-100-176-204 0-111 88-202 197-206l-12-39 20-6 14 45c106 7 191 97 191 206z m-389 0c0 90 64 165 148 182l-59-180 143-31-49-157c-101 1-183 84-183 186z m204-185l55 172-144 31 56 167c4 0 9 1 13 1 102 0 184-84 184-186 0-96-72-174-164-185z"/>
<glyph unicode="&#77;" d="M227 282c5 0 9 3 9 8 0 62 12 132 21 174 9-42 21-113 21-174 0-5 4-8 9-8l0 0c5 0 8 4 8 8 0 95-29 214-30 216-1 3-4 6-8 6l0 0c-4 0-7-3-8-6 0-2-30-119-30-216 0-5 4-8 8-8z m241-160c-1 1-78 94-156 151-4 3-9 2-12-1-2-4-2-10 2-12 50-37 99-88 128-120-40 18-104 50-153 85-4 3-9 2-12-2-3-3-2-9 2-12 77-55 190-102 191-102 1-1 2-1 3-1 3 0 5 1 7 3 2 4 2 8 0 11z m-221 101c-3 4-8 5-12 2-49-35-113-67-152-85 28 32 78 83 127 120 4 2 5 8 2 12-3 3-8 4-12 1-78-57-155-150-155-151-3-3-3-7-1-11 2-2 5-3 7-3 1 0 2 0 3 1 2 0 115 47 191 102 4 3 5 9 2 12z m10 67c-16 0-30-13-30-30 0-16 14-30 30-30 17 0 30 14 30 30 0 17-13 30-30 30z m0-43c-7 0-13 6-13 13 0 7 6 13 13 13 7 0 13-6 13-13 0-7-6-13-13-13z m14-68l-28 0c-5 0-8-3-9-8l-7-162c0-2 1-5 3-6 1-2 4-3 6-3l42 0c3 0 5 1 7 3 1 1 2 4 2 6l-7 162c0 5-4 8-9 8z m-26-162l6 145 12 0 7-145z"/>
<glyph unicode="&#78;" d="M256 512c-35 0-63-28-63-63 0-34 28-62 63-62 35 0 63 28 63 62 0 35-28 63-63 63z m0-104c-23 0-42 18-42 41 0 23 19 42 42 42 23 0 42-19 42-42 0-23-19-41-42-41z m0-283c-35 0-63-28-63-62 0-35 28-63 63-63 35 0 63 28 63 63 0 34-28 62-63 62z m0-104c-23 0-42 19-42 42 0 23 19 41 42 41 23 0 42-18 42-41 0-23-19-42-42-42z m-131 235c0 35-28 63-62 63-35 0-63-28-63-63 0-35 28-63 63-63 34 0 62 28 62 63z m-104 0c0 23 19 42 42 42 23 0 41-19 41-42 0-23-18-42-41-42-23 0-42 19-42 42z m428 63c-34 0-62-28-62-63 0-35 28-63 62-63 35 0 63 28 63 63 0 35-28 63-63 63z m0-105c-23 0-41 19-41 42 0 23 18 42 41 42 23 0 42-19 42-42 0-23-19-42-42-42z m-330 116c17 0 33 7 45 18 24 25 24 65 0 89-12 12-28 18-45 18-16 0-32-6-44-18-24-24-24-64 0-89 12-11 28-18 44-18z m-29 92c8 8 18 12 29 12 11 0 22-4 30-12 16-16 16-43 0-59-8-8-19-12-30-12-11 0-21 4-29 12-17 16-17 43 0 59z m303-240c-17 0-33-7-45-18-24-25-24-65 0-89 12-12 28-18 45-18 16 0 32 6 44 18 24 24 24 64 0 89-12 11-28 18-44 18z m29-92c-16-16-43-16-59 0-16 16-16 43 0 59 8 8 19 12 30 12 11 0 21-4 29-12 17-16 17-43 0-59z m-303 92c-16 0-32-7-44-18-24-25-24-65 0-89 12-12 28-18 44-18 17 0 33 6 45 18 24 24 24 64 0 89-12 11-28 18-45 18z m30-92c-16-16-43-16-59 0-17 16-17 43 0 59 8 8 18 12 29 12 11 0 22-4 30-12 16-16 16-43 0-59z m244 240c16 0 32 7 44 18 24 25 24 65 0 89-12 12-28 18-44 18-17 0-33-6-45-18-24-24-24-64 0-89 12-11 28-18 45-18z m-30 92c8 8 19 12 30 12 11 0 21-4 29-12 17-16 17-43 0-59-16-16-43-16-59 0-16 16-16 43 0 59z"/>
<glyph unicode="&#79;" d="M502 485c-6-5-156-104-173-220l-4-220-138 0-4 219 0 1c-17 116-167 215-173 220l-10-16c1-1 149-98 165-206l4-236 174 0 4 236c16 108 164 205 165 206z m-246-157c40 0 73 33 73 73 0 40-33 73-73 73-40 0-73-33-73-73 0-40 33-73 73-73z m0 127c30 0 55-24 55-54 0-30-25-55-55-55-30 0-55 25-55 55 0 30 25 54 55 54z"/>
<glyph unicode="&#80;" d="M502 475c-4-2-102-70-113-148l-2-143-83 0-2 142 0 1c-11 78-109 146-113 148l-10-15c1-1 94-65 105-135l2-159 119 0 2 159c10 70 104 134 105 135z m-157-107c28 0 51 23 51 51 0 29-23 52-51 52-28 0-50-23-50-52 0-28 22-51 50-51z m0 84c18 0 33-14 33-33 0-18-15-32-33-32-18 0-32 14-32 32 0 19 14 33 32 33z m-187-290l-1-107-59 0-1 105 0 2c-9 60-84 111-87 113l-10-15c1-1 71-49 79-101l1-122 95 0 1 122c8 52 78 100 79 101l-11 15c-3-2-78-53-86-113z m-31 27c23 0 41 18 41 41 0 23-18 41-41 41-22 0-40-18-40-41 0-23 18-41 40-41z m0 64c13 0 23-10 23-23 0-13-10-23-23-23-12 0-22 10-22 23 0 13 10 23 22 23z"/>
<glyph unicode="&#81;" d="M207 446c0 27 22 48 49 48 27 0 49-21 49-48l0-269 17 0 0 269c0 36-29 66-66 66-37 0-66-30-66-66l0-269 17 0z m-53-278l0-80 36 0 0-44 35 0 0-44 62 0 0 44 35 0 0 44 36 0 0 80z m115-150l-26 0 0 26 26 0z m36 44l-98 0 0 26 98 0z m35 44l-168 0 0 44 168 0z m-27 35l-114 0 0-17 114 0z"/>
<glyph unicode="&#82;" d="M68 271l52 45-19-66 9-3c36-14 76 12 119 78 40 61 6 149 4 153l-3 7-7 0c-4 0-100-6-139-66-43-66-51-113-23-141z m34 136c27 43 91 53 114 56 7-21 23-84-4-126-23-35-55-74-85-73l34 115-91-78c-13 26 9 72 32 106z m315-96c-34 0-63-6-87-18-2-1-232-116-249-133-6-6-8-14-4-21 5-14 26-27 43-27 7 0 13 2 17 7 6 5 45 15 74 15 11 0 16-1 17-2-2-6-19-21-26-27-4-4-9-7-12-10-2-1-11-3-46-3-54 0-130 5-130 5l-8 1-3-6c-1-2-6-14 0-28 5-12 16-21 33-27 23-7 78-10 122-10 44 0 99 3 122 10 31 10 49 34 67 56 7 9 14 18 22 26 24 24 93 50 94 50l7 2 0 135-9 1c-1 1-19 4-44 4z m31-125c-19-7-71-29-94-52-9-9-16-18-24-28-16-21-32-40-56-49-17-5-63-9-116-9-53 0-98 4-115 9-11 4-18 9-21 15 0 1-1 2-1 4 23-2 79-6 123-6 48 0 56 5 61 9 3 3 7 6 11 10 15 13 33 28 34 43 0 6-2 11-6 15-6 6-16 8-33 8-27 0-75-8-89-21 0 0-1-1-2-1-9 0-21 8-23 13 17 14 168 91 243 128 25 13 56 16 77 16 13 0 24-1 31-2l0-102z m43 124l0-148 21 0 0 148z"/>
<glyph unicode="&#83;" d="M417 293c-34 0-63-6-87-18-2-1-232-117-249-135-6-5-8-14-4-21 5-14 26-27 43-27 7 0 13 2 17 7 6 5 45 15 74 15 11 0 16-1 17-2-2-6-19-21-26-27-4-4-9-8-12-11-2 0-11-3-46-3-54 0-130 6-130 6l-8 0-3-6c-1-1-6-14 0-28 5-12 16-21 33-27 23-8 78-10 122-10 44 0 99 2 122 10 31 10 49 34 67 57 7 9 14 18 22 26 24 24 93 50 94 50l7 3 0 136-9 2c-1 0-19 3-44 3z m31-126c-19-8-71-30-94-53-9-9-16-19-24-28-16-21-32-41-56-50-17-5-63-9-116-9-53 0-98 4-115 9-11 4-18 9-21 15 0 1-1 3-1 4 23-2 79-5 123-5 48 0 56 4 61 9 3 2 7 6 11 10 15 13 33 28 34 43 0 6-2 11-6 15-6 6-16 9-33 9-27 0-75-9-89-22 0 0-1-1-2-1-9 0-21 8-23 13 17 14 168 92 243 130 25 13 56 16 77 16 13 0 24-1 31-2l0-103z m43 125l0-150 21 0 0 150z m-434-114l16 14c0 1-35 45 33 148 21 31 27 61 19 88-14 46-64 67-66 67l-8-19c0-1 42-18 53-54 7-21 1-44-16-70-78-118-33-172-31-174z m124 269c6-17 0-38-18-62-32-44-54-108-55-111l21-6c0 0 21 63 51 104 23 30 30 58 21 82-14 40-67 52-70 53l-4-21c0 0 44-11 54-39z"/>
<glyph unicode="&#84;" d="M426 481l-147-327-279 0 0-21 292 0 147 328 73 0 0 20z m-367-362c-24 0-44-20-44-44 0-24 20-44 44-44 25 0 44 20 44 44 0 24-19 44-44 44z m0-68c-13 0-23 11-23 24 0 13 10 24 23 24 13 0 24-11 24-24 0-13-11-24-24-24z m170 68c-24 0-44-20-44-44 0-24 20-44 44-44 24 0 44 20 44 44 0 24-20 44-44 44z m0-68c-13 0-24 11-24 24 0 13 11 24 24 24 13 0 24-11 24-24 0-13-11-24-24-24z m-43 167c0-16 13-30 30-30 17 0 30 14 30 30 0 17-13 30-30 30-17 0-30-13-30-30z m-83 0c0-16 14-30 30-30 17 0 30 14 30 30 0 17-13 30-30 30-16 0-30-13-30-30z m-52-30c17 0 31 14 31 30 0 17-14 30-31 30-16 0-30-13-30-30 0-16 14-30 30-30z m176 112c0-17 13-30 30-30 17 0 30 13 30 30 0 17-13 30-30 30-17 0-30-13-30-30z m-83 0c0-17 14-30 30-30 17 0 30 13 30 30 0 17-13 30-30 30-16 0-30-13-30-30z m-52-30c17 0 30 13 30 30 0 17-13 30-30 30-16 0-30-13-30-30 0-17 14-30 30-30z m206 82c17 0 30 13 30 30 0 17-13 30-30 30-17 0-30-13-30-30 0-17 13-30 30-30z m-83 0c17 0 30 13 30 30 0 17-13 30-30 30-16 0-30-13-30-30 0-17 14-30 30-30z m-82 0c17 0 30 13 30 30 0 17-13 30-30 30-16 0-30-13-30-30 0-17 14-30 30-30z"/>
<glyph unicode="&#85;" d="M225 14c-8 0-19 3-28 25-14 32-19 88 0 137-41-23-91-35-129-35-38 0-47 11-48 20 0 6-2 18 38 35-29 1-48 7-55 19-4 8-4 17 1 26 14 24 65 49 125 49 11 0 21-1 32-2-61 54-98 131-91 159 2 9 9 15 17 15 12 0 29-13 47-33-11 27-15 50-8 62 4 7 10 11 19 11 31 0 88-62 111-146 23 84 80 146 111 146 8 0 15-4 19-11 7-12 3-35-8-62 18 20 35 33 47 33 8 0 15-6 17-15 7-28-30-105-91-159 10 1 21 2 32 2 65 0 129-31 129-63 0-12-8-30-58-31 40-17 38-30 38-36-1-9-10-21-48-21 0 0 0 0 0 0-38 0-88 12-129 35 19-49 14-106 0-137-9-23-20-27-28-27l0 0c-14 0-24 13-31 40 0 1 0 3 0 4-7-28-17-40-31-40z m15 194c-43-45-42-120-27-159 5-16 11-19 12-19 0 0 21 13 21 138l20 0c0-125 20-138 21-138 1 0 7 4 12 19 15 39 16 114-27 159l14 12c42-44 118-62 158-62 0 0 0 0 0 0 15 0 23 3 27 5-6 6-32 24-142 49l4 20c48-11 87-16 116-16l0 0c32 0 44 7 44 11 0 13-44 44-110 44-30 0-59-7-85-21l-9 17c73 39 119 116 131 155 3 11 4 17 3 20-6-2-36-19-112-137l-17 11c89 137 76 165 75 166 0 1 0 1-2 1-9 0-35-19-59-57-16-25-42-75-42-142l-20 0c0 115-78 198-101 198-2 0-2 0-2 0-1-1-14-29 74-166l-16-11c-76 118-106 135-112 137-1-3-1-9 3-20 12-40 58-116 131-155l-9-17c-26 14-55 21-85 21-55 0-99-24-108-40-2-3-2-5-1-6 0-1 6-10 43-10 29 0 68 5 116 16l4-19c-110-24-136-42-142-48 3-2 12-4 27-4 40 0 116 16 158 61z"/>
<glyph unicode="&#86;" d="M506 293c-4 2-8 1-10-1l-44-44-156 156c-3 3-9 3-13 0l-56-56-43 43 43 44c3 3 4 7 2 10-2 4-5 6-9 5l-187-25c-4 0-7-3-8-7l-25-188c0-3 2-7 5-9 3-1 7-1 10 2l44 44 156-156c2-2 4-3 6-3 2 0 5 1 6 3l56 56 44-44-44-44c-2-2-3-6-1-10 1-3 4-5 8-5 0 0 0 0 1 0l187 25c4 1 7 4 8 8l25 187c0 4-2 8-5 9z m-285-164l-156 156c-2 2-4 3-6 3-3 0-5-1-6-3l-32-31 21 155 154 20-31-31c-4-4-4-9 0-13l156-156z m248-23l-155-21 32 32c3 3 3 9 0 12l-50 50 44 44c1 2 2 4 2 6 0 2-1 5-2 6l-100 100 50 50 156-156c3-3 9-3 12 0l32 32z"/>
<glyph unicode="&#87;" d="M39 82l1 0c-5 1-25 7-25 67l0 74c-9 13-30 94 2 148 33 56 99 72 195 48 43-11 95-11 137-12 55 0 79-1 86-15 3-6 18-17 32-27 27-19 53-37 43-57-1-3-2-4-2-6-1-5-2-10-11-18-10-11-25-12-39-12-14-1-27-1-36-10-5-5-11-11-17-18-22-25-45-50-65-50 0 0-1 0-1 0 0 0 0-5 8-18 8-12 18-23 26-32 15-17 29-32 16-45-4-5-11-8-19-8-12 0-22 5-24 6l-1 1-2 2c-5 6-48 63-55 77-1 2-2 4-2 4-1 0-2-2-2-3-3-11-9-16-14-19-4-4-7-6-7-21 0-12-6-29-6-31l-2-7-45 0 20 98c-13-4-32-8-55-8-18 0-35 3-51 9 3-14 10-36 28-55 7-7 16-18 12-28-3-7-11-11-23-11-9 0-19 2-19 2l-2 0-1 1c-17 12-37 28-37 41 0 6-4 36-8 61-2-3-4-6-7-11-12-24-12-46-12-50 0-7 3-22 6-30l0-1 0-31z m94 329c-47 0-82-16-101-49-30-50-1-133-1-134l2-2 0-77c0-35 6-45 9-48l0 1 0 12c0 6-7 24-7 35 0 14 5 34 15 56 13 26 28 25 31 25l7 0 2-6c1-7 11-65 11-76 1-4 13-15 26-24 3 0 9-1 14-1 2 0 3 1 4 1-1 1-1 4-5 7-34 35-33 81-33 83l0 15 12-7c17-9 36-13 57-13 36 0 63 13 63 13l17 8-24-112 9 0c2 10 3 14 3 19 0 22 7 30 15 36 4 3 6 5 7 10l1 2c1 3 8 15 19 15 8 0 14-5 19-14 4-10 33-48 51-73 3-2 9-3 14-3 3 0 5 0 6 1-2 4-10 14-17 21-8 9-18 20-27 33-11 17-14 29-9 38 4 7 11 9 17 9 12 0 36 27 52 45 6 6 12 13 17 18 14 14 32 15 48 15 12 1 22 1 27 7 5 5 6 6 6 9 0 2 1 5 3 10 3 6-26 26-37 34-17 12-33 23-38 34-5 5-41 5-69 5-43 0-97 1-142 12-27 7-52 10-74 10z"/>
<glyph unicode="&#88;" d="M512 267l-213 22 110 110-15 16-106-106-21 203-22 0-23-222-222-23 0-22 203-21-100-100 15-16 105 105 22-213 22 0 23 222 222 23z m-241-11l-2-13-13-2-4 1 18 18z m-29 7l1 6 6 1z m14 140l11-111-11 1-11-1z m-36-136l-1-11 1-11-111 11z m36-158l-11 111 11-1 11 1z m36 136l1 11-1 11 111-11z"/>
<glyph unicode="&#89;" d="M393 304c-22-22-52-35-83-35-64 0-117 53-117 117 0 48 29 90 73 108l38 16-41 2-2 0c-2 0-3 0-5 0-89 0-162-73-162-162 0-80 59-146 135-159l0-32c-5-3-9-9-9-15 0-7 4-13 9-16l0-76c-10-3-18-13-18-25 0-15 12-27 27-27 15 0 27 12 27 27 0 12-8 22-18 25l0 76c5 3 9 9 9 16 0 6-4 12-9 15l0 30c3 0 6 0 9 0 67 0 128 42 152 106l14 38z m-137-97c-79 0-144 64-144 143 0 69 48 126 113 141-31-26-50-63-50-105 0-74 61-134 135-134 22 0 44 5 63 15-27-37-70-60-117-60z"/>
<glyph unicode="&#90;" d="M433 176l77 77-77 78 0 109-110 0-72 72-72-72-102 0 0-102-77-77 77-78 0-109 110 0 72-72 72 72 102 0 0 102z m47 77l-47-47 0 95z m-68-68l-90-90-127 0-97 97 0 137 90 90 127 0 97-97z m0 234l0-67-68 67z m-161 63l43-42-85 0z m-153-63l60 0-60-60z m-68-158l47 47 0-95z m68-166l0 68 68-68z m161-63l-43 42 85 0z m93 63l60 60 0-60z"/>
<glyph unicode="&#48;" d="M405 256c-5 0-9-4-10-9-11-73-73-126-146-126-8 0-16 1-24 2-39 7-74 28-97 60-23 33-33 72-26 112 8 52 44 96 93 115 4 2 7 7 6 12-1 5-6 8-11 8-95-8-172-80-187-175-19-114 59-221 172-239 11-2 23 0 34 0l0 0c102 0 189 72 205 174 3 19 4 37 1 57-1 5-5 9-10 9z m-196-225c-10 0-20 1-30 3-103 16-173 114-157 217 11 65 54 119 111 144-27-26-45-60-51-97-15-93 48-180 140-195 9-1 18-2 27-2 61 0 114 32 144 82-18-88-94-152-184-152z m303 353l-37 33 37 33-49-2 2 49-32-37-33 37 2-49-49 2 37-33-37-33 49 3-2-50 33 37 32-37-2 50z m-55 23l-15 1 1-15-10 11-11-11 1 15-15-1 11 10-11 10 15-1-1 16 11-12 10 12-1-16 15 1-11-10z"/>
<glyph unicode="&#49;" d="M470 398c-2 3-7 5-11 3-5-1-7-5-7-10 1-5 1-10 1-15 0-108-88-196-197-196-109 0-197 88-197 196 0 5 0 10 1 15 0 5-2 9-7 10-4 2-9 0-11-3-28-42-42-90-42-139 0-140 115-254 256-254 141 0 256 114 256 254 0 49-14 97-42 139z m-214-374c-130 0-236 105-236 235 0 33 7 66 20 96 11-109 104-194 216-194 112 0 205 85 216 194 13-30 20-63 20-96 0-130-106-235-236-235z m-20 401l20-40 20 40 45 7-33 31 8 44-40-21-40 21 8-44-33-31z"/>
<glyph unicode="&#50;" d="M425 447l0 65-19 0 0-60-39-35 0-185-48 0 0 19 38 0 0 10c0 52-44 95-96 98l0 85-19 0 0-86c-48-7-87-48-87-97l0-10 38 0 0-19-48 0 0 185-39 35 0 60-19 0 0-65-29-31 0-416 396 0 0 416z m-169-107c40 0 74-30 78-70l-156 0c4 40 38 70 78 70z m-43-89l86 0 0-19-86 0z m-120 174l13 0 0 1 20-18 0-195 260 0 0 195 20 18 0-1 13 0 16-17 0-340-358 0 0 340z m-16-406l0 29 358 0 0-29z"/>
<glyph unicode="&#51;" d="M467 356c7-2 12-5 12-5l9 16c0 0-5 3-14 7z m-425-247l-15-12c7-8 14-15 22-22l12 14c-7 7-13 13-19 20z m-22 47l-19-3c2-11 5-21 10-30l17 8c-4 8-6 16-8 25z m4 52l-18 5c-3-10-5-20-6-30l19-1c1 8 2 17 5 26z m43 106c-7-7-13-15-19-22l15-12c6 8 12 15 18 22z m6-257c9-6 18-11 26-15l8 17c-7 4-15 8-23 14z m15 279l13-14c7 7 14 13 21 19l-13 14c-7-6-14-13-21-19z m-41-78l-16 10c-6-9-10-18-15-27l18-8c4 8 8 16 13 25z m85-206l-2-19c3 0 5 0 8 0 9 0 17 2 25 5l-7 17c-8-3-15-4-24-3z m360 396c-7 8-15 15-26 20l-8-17c8-3 14-9 19-15z m1-60l19 1c0 11-2 22-5 31l-18-6c2-8 4-16 4-26z m-171 57l-5 18c-9-3-19-6-28-9l6-18c9 3 18 6 27 9z m-63-20l8 3-6 17-8-2c-6-2-13-5-20-8l8-17c6 3 12 5 18 7z m-44-19l-9 16c-8-4-17-9-25-14l10-16c8 5 16 9 24 14z m261-127l18-5c3 9 5 19 8 28l-19 4c-2-9-5-18-7-27z m-122 83l11-16c7 5 15 9 23 12l-6 18c-10-3-19-8-28-14z m82 115c-10 2-20 2-31 2l1-19c9 0 19 0 27-1z m-126-157l16-11c5 7 11 14 18 20l-14 14c-7-7-13-15-20-23z m65 156c-9-2-19-4-29-6l4-18c10 2 19 4 28 5z m38-93l1-19c10 1 18 1 27-1l3 19c-10 1-21 2-31 1z m76-50l19-3c2 10 3 20 4 29l-19 2c-1-9-2-18-4-28z m-254-170l18-7c3 8 7 17 11 26l-17 7c-4-9-8-17-12-26z m-58-94l13-13c7 6 13 13 20 23l-15 11c-6-9-12-15-18-21z m33 44l16-9c5 7 9 16 14 25l-17 9c-5-9-9-18-13-25z m70 156l18-8c4 9 8 17 13 25l-17 9c-5-8-9-17-14-26z m-22-53l18-8c3 9 7 18 11 27l-18 7c-4-9-7-18-11-26z m-126 158l12-15c7 6 15 12 23 17l-11 15c-8-5-16-11-24-17z m348-142c2 4 3 9 5 13l-18 6c-1-2-2-4-3-7 0 0 0 0 0 0l-3 9c-3-1-54-22-54-121l19 0c0 69 27 94 37 101l-2-7c0 0 13-17 13-104l19 0c0 65-10 97-17 111z"/>
<glyph unicode="&#52;" d="M256 512c-141 0-256-115-256-256 0-141 115-256 256-256 141 0 256 115 256 256 0 141-115 256-256 256z m-237-256c0 63 25 121 65 163l137-136-129-129 64-64 128 129 135-135c-42-40-100-65-163-65-131 0-237 106-237 237z m279 48l68 68 8-8-68-68z m-13-21c10-10 10-27 0-37l-1 0-36 37 0 0c10 10 27 10 37 0z m-14-51l-115-115-37 37 115 115z m161-134l-134 134 0 1c11 11 15 26 12 40l91 91-35 35-91-91c-3 1-6 1-9 1-12 0-23-4-32-13l0 0-136 136c42 38 97 61 158 61 131 0 237-106 237-237 0-61-23-116-61-158z"/>
<glyph unicode="&#53;" d="M256 512c-141 0-256-115-256-256 0-141 115-256 256-256 141 0 256 115 256 256 0 141-115 256-256 256z m-237-256c0 63 25 121 65 163l49-49c0-1 0-3 0-5 0-38 16-70 38-78l0-211 19 0 0 209c6 2 13 5 18 10l114-114 0-105 19 0 0 86 78-78c-42-40-100-65-163-65-131 0-237 106-237 237z m187 68l-54 54c4 29 18 49 31 49 15 0 31-26 31-62 0-16-3-30-8-41z m-11-15c-4-4-8-6-12-6-13 0-27 19-30 48z m237-211l-91 91 0 95 19 0c16 0 29 13 29 29l0 114-19 0 0-114c0-5-4-10-10-10l-19 0 0 124-19 0 0-124-19 0c-5 0-9 5-9 10l0 114-19 0 0-114c0-16 13-29 28-29l19 0 0-76-102 102c8 15 13 34 13 55 0 45-22 81-50 81-22 0-40-21-47-52l-38 38c42 38 97 61 158 61 131 0 237-106 237-237 0-61-23-116-61-158z"/>
<glyph unicode="&#54;" d="M506 397c-17 33-68 56-127 56-55 0-103-20-123-50-20 30-68 50-123 50-59 0-110-23-127-56l-6 0 0-338 19 0 3 7c10 29 57 50 111 50 54 0 100-21 111-50l2-6 0-1 20 0 0 1 2 6c11 29 57 50 111 50 54 0 101-21 111-50l3-7 19 0 0 338z m-373-262c-48 0-90-14-113-38l0 281 2 5c10 29 57 50 111 50 54 0 100-21 111-50l2-5 0-281c-23 24-66 38-113 38z m359-38c-23 24-65 38-113 38-47 0-90-14-113-38l0 281 2 5c11 29 57 50 111 50 54 0 101-21 111-50l2-5z"/>
<glyph unicode="&#55;" d="M441 419l29-30 14 14-75 75 84-409 19 4z m-217 7l6-15c2-9 4-19 4-33l9 0 0-1c0 0 0 1 0 1l10 0c0 68-32 74-36 74l0-19c1 0 4-3 7-7z m-147-39c0 0 19-1 29-21l18 9c-15 31-47 31-47 31l0-10c-1 0-2 0-2 0l2-2 0-7z m33-96l-10 0c0 1 0 1 0 1l0-1-9 0c0 0-1-23-36-58l13-14c41 41 42 72 42 72z m171-15c0 0 1 0 1 0 7 0 12 5 18 13 4-6 9-10 15-10 13 0 18 15 22 30l-19 5c-1-5-2-8-3-11-2 3-3 7-4 11l-6 26-12-24c-5-9-8-14-10-17-1 3-3 7-4 10-2 6-4 14-8 20l-17-8c3-6 5-12 7-18 5-14 9-26 20-27z m114-72c-4 14-7 25-9 35l13-13c2-2 4-3 7-3 2 0 5 1 7 2 4 4 4 10 0 14l-30 31 0 0-9 8c-4 4-10 4-14 0-3-4-3-10 1-14l2-2c1-10 3-33 14-64 3-9 7-18 12-26 16-31 28-55-22-93-14-11-25-14-35-9-38 17-51 129-53 171l-20-1c0-95 0-159-23-179-10-8-23-10-43-7-11 2-19 8-26 18-30 44-5 152-5 153l0 2 0 2c-2 9-8 20-18 20-14 1-32-14-66-123-17-58-29-60-29-60-8 1-23 44-30 97 0 5-5 9-11 9-5-1-9-6-8-11 4-34 17-111 47-114 19-2 34 20 50 73 25 84 40 104 45 108 0 0 0-1 0-1-3-17-23-118 9-166 9-14 22-23 39-26 7-1 13-1 19-1 16 0 29 4 39 12 18 15 25 42 28 82 10-34 25-65 48-76 16-8 35-4 55 11 63 48 43 87 27 118-4 8-8 16-11 23z"/>
<glyph unicode="&#56;" d="M256 512c-141 0-256-115-256-256 0-141 115-256 256-256 141 0 256 115 256 256 0 141-115 256-256 256z m0-493c-131 0-237 106-237 237 0 131 106 237 237 237 131 0 237-106 237-237 0-131-106-237-237-237z m161 246c-5 0-9-4-9-9 0-84-68-152-152-152-84 0-152 68-152 152 0 5-4 9-9 9-5 0-10-4-10-9 0-94 77-171 171-171 94 0 171 77 171 171 0 5-5 9-10 9z m-85 10c5 0 9 4 9 9l0 57c0 6-4 10-9 10-5 0-10-4-10-10l0-57c0-5 5-9 10-9z m-152 0c5 0 10 4 10 9l0 57c0 6-5 10-10 10-5 0-9-4-9-10l0-57c0-5 4-9 9-9z"/>
<glyph unicode="&#57;" d="M256 512c-141 0-256-115-256-256 0-141 115-256 256-256 141 0 256 115 256 256 0 141-115 256-256 256z m0-493c-131 0-237 106-237 237 0 131 106 237 237 237 131 0 237-106 237-237 0-131-106-237-237-237z m152 183c-5 2-10-1-12-5-16-38-46-67-83-82-38-15-79-14-116 1-5 2-11 0-13-5-2-4 0-10 5-12 22-9 44-14 67-14 22 0 43 4 64 13 42 17 75 49 93 91 2 5 0 11-5 13z m-105 101l57 0c6 0 10 5 10 10 0 5-4 9-10 9l-57 0c-5 0-9-4-9-9 0-5 4-10 9-10z m-113-19l0 57c0 6-5 10-10 10-5 0-9-4-9-10l0-57c0-5 4-9 9-9 5 0 10 4 10 9z"/>
<glyph unicode="&#33;" d="M256 512c-141 0-256-115-256-256 0-141 115-256 256-256 141 0 256 115 256 256 0 141-115 256-256 256z m0-493c-131 0-237 106-237 237 0 131 106 237 237 237 131 0 237-106 237-237 0-131-106-237-237-237z m161 246l-322 0c-5 0-10-4-10-9 0-94 77-171 171-171 94 0 171 77 171 171 0 5-5 9-10 9z m-161-161c-80 0-146 63-151 143l302 0c-4-80-71-143-151-143z m76 218c5 0 9 5 9 10l0 57c0 5-4 9-9 9-5 0-10-4-10-9l0-57c0-5 5-10 10-10z m-152 0c5 0 10 5 10 10l0 57c0 5-5 9-10 9-5 0-9-4-9-9l0-57c0-5 4-10 9-10z"/>
<glyph unicode="&#34;" d="M256 512c-141 0-256-115-256-256 0-141 115-256 256-256 141 0 256 115 256 256 0 141-115 256-256 256z m0-493c-131 0-237 106-237 237 0 131 106 237 237 237 131 0 237-106 237-237 0-131-106-237-237-237z m161 246l-322 0c-5 0-10-4-10-9 0-94 77-171 171-171 94 0 171 77 171 171 0 5-5 9-10 9z m-147-18l29 0 0-57-29 0z m-47 0l28 0 0-57-28 0z m33-143c-80 0-146 63-151 143l99 0 0-67c0-5 4-9 9-9l95 0c5 0 10 4 10 9l0 67 89 0c-4-80-71-143-151-143z m76 218c5 0 9 5 9 10l0 57c0 5-4 9-9 9-5 0-10-4-10-9l0-57c0-5 5-10 10-10z m-152 0c5 0 10 5 10 10l0 57c0 5-5 9-10 9-5 0-9-4-9-9l0-57c0-5 4-10 9-10z"/>
<glyph unicode="&#35;" d="M256 512c-141 0-256-115-256-256 0-141 115-256 256-256 141 0 256 115 256 256 0 141-115 256-256 256z m0-493c-131 0-237 106-237 237 0 131 106 237 237 237 131 0 237-106 237-237 0-131-106-237-237-237z m161 246l-322 0c-5 0-10-4-10-9 0-94 77-171 171-171 94 0 171 77 171 171 0 5-5 9-10 9z m-161-161c-41 0-78 17-105 43 10 9 56 47 101 25 0 0 0 0 0-1 1 0 2 0 2 0 1 0 1 0 2 0 1 0 1 0 2 0 0 0 1 0 2 0 0 1 0 1 0 1 45 22 91-16 101-25-27-26-64-43-105-43z m118 57c-12 11-64 53-118 29-54 24-106-18-118-29-19 24-31 53-33 86l302 0c-2-33-14-62-33-86z m-71 190l57 0c6 0 10 4 10 9 0 6-4 10-10 10l-57 0c-5 0-9-4-9-10 0-5 4-9 9-9z m-161 0l57 0c5 0 10 4 10 9 0 6-5 10-10 10l-57 0c-5 0-9-4-9-10 0-5 4-9 9-9z"/>
<glyph unicode="&#36;" d="M256 512c-141 0-256-115-256-256 0-141 115-256 256-256 141 0 256 115 256 256 0 141-115 256-256 256z m0-493c-131 0-237 106-237 237 0 131 106 237 237 237 131 0 237-106 237-237 0-131-106-237-237-237z m0 209c-71 0-135-45-160-111-2-5 1-10 6-12 5-2 10 1 12 5 22 59 79 99 142 99 63 0 120-40 142-99 1-3 5-6 9-6 1 0 2 0 3 1 5 2 8 7 6 12-25 66-89 111-160 111z m89 58c2-2 5-3 7-3 2 0 5 1 7 3 3 4 3 10 0 13l-41 41c-3 3-9 3-13 0-4-4-4-10 0-14z m-185-3c2 0 5 1 7 3l40 40c4 4 4 10 0 14-4 3-10 3-13 0l-41-41c-3-3-3-9 0-13 2-2 5-3 7-3z"/>
<glyph unicode="&#37;" d="M256 512c-141 0-256-115-256-256 0-141 115-256 256-256 141 0 256 115 256 256 0 141-115 256-256 256z m0-493c-131 0-237 106-237 237 0 131 106 237 237 237 131 0 237-106 237-237 0-131-106-237-237-237z m0 209c-71 0-135-45-160-111-2-5 1-10 6-12 5-2 10 1 12 5 22 59 79 99 142 99 63 0 120-40 142-99 1-3 5-6 9-6 1 0 2 0 3 1 5 2 8 7 6 12-25 66-89 111-160 111z m56 55c2 0 5 1 6 3l41 40c3 4 3 10 0 14-4 3-10 3-14 0l-40-41c-4-3-4-9 0-13 2-2 4-3 7-3z m-118 3c1-2 4-3 6-3 3 0 5 1 7 3 4 4 4 10 0 13l-40 41c-4 3-10 3-14 0-3-4-3-10 0-14z"/>
<glyph unicode="&#38;" d="M256 512c-141 0-256-115-256-256 0-141 115-256 256-256 141 0 256 115 256 256 0 141-115 256-256 256z m0-493c-131 0-237 106-237 237 0 131 106 237 237 237 131 0 237-106 237-237 0-131-106-237-237-237z m0 209c-71 0-135-45-160-111-2-5 1-10 6-12 5-2 10 1 12 5 6 16 14 30 24 42l35-35c2-2 5-3 7-3 1 0 3 0 4 0 3 2 6 5 6 9l0 67c0 1-1 2-1 3 20 10 43 16 67 16 21 0 41-5 60-13-2-2-3-4-3-6l0-67c0-4 2-7 6-9 1 0 2 0 3 0 3 0 5 1 7 3l38 37c1 1 2 3 2 4 12-14 22-30 29-48 1-3 5-6 9-6 1 0 2 0 3 1 5 2 8 7 6 12-25 66-89 111-160 111z m-85-82l-20 20c6 6 13 11 20 16z m183 22l-22-22 0 42c9-5 17-11 25-18-1 0-2-1-3-2z m-42 115c2 0 5 1 6 3l41 40c3 4 3 10 0 14-4 3-10 3-14 0l-40-41c-4-3-4-9 0-13 2-2 4-3 7-3z m-118 3c1-2 4-3 6-3 3 0 5 1 7 3 4 4 4 10 0 13l-40 41c-4 3-10 3-14 0-3-4-3-10 0-14z"/>
<glyph unicode="&#39;" d="M256 512c-141 0-256-115-256-256 0-141 115-256 256-256 141 0 256 115 256 256 0 141-115 256-256 256z m0-493c-131 0-237 106-237 237 0 131 106 237 237 237 131 0 237-106 237-237 0-131-106-237-237-237z m62 321c-3 3-9 3-13 0-4-4-4-10 0-14l40-40c2-2 5-3 7-3 2 0 5 1 7 3 3 4 3 10 0 13z m-111-14c4 4 4 10 0 14-4 3-10 3-13 0l-41-41c-3-3-3-9 0-13 2-2 5-3 7-3 2 0 5 1 7 3z m49-108c-53 0-95-29-95-66 0-38 42-67 95-67 53 0 95 29 95 67 0 37-42 66-95 66z m0-114c-41 0-76 22-76 48 0 25 35 47 76 47 41 0 76-22 76-47 0-26-35-48-76-48z"/>
<glyph unicode="&#40;" d="M256 512c-141 0-256-115-256-256 0-141 115-256 256-256 141 0 256 115 256 256 0 141-115 256-256 256z m0-493c-131 0-237 106-237 237 0 131 106 237 237 237 131 0 237-106 237-237 0-131-106-237-237-237z m-114 142l237 0 0 19-237 0z m199 190c-26 0-47-21-47-48 0-26 21-47 47-47 26 0 48 21 48 47 0 27-22 48-48 48z m0-76c-15 0-28 13-28 28 0 16 13 29 28 29 16 0 29-13 29-29 0-15-13-28-29-28z m-161-19c26 0 48 21 48 47 0 27-22 48-48 48-26 0-47-21-47-48 0-26 21-47 47-47z m0 76c16 0 29-13 29-29 0-15-13-28-29-28-16 0-28 13-28 28 0 16 12 29 28 29z"/>
<glyph unicode="&#41;" d="M256 512c-141 0-256-115-256-256 0-141 115-256 256-256 141 0 256 115 256 256 0 141-115 256-256 256z m0-493c-131 0-237 106-237 237 0 131 106 237 237 237 131 0 237-106 237-237 0-131-106-237-237-237z m-114 142l237 0 0 19-237 0z m238 185l-20-20-20 20-13-13 20-20-20-20 13-14 20 20 20-20 14 14-20 20 20 20z m-199-67l14 14-20 20 20 20-14 13-20-20-20 20-13-13 20-20-20-20 13-14 20 20z"/>
<glyph unicode="&#42;" d="M321 283c3 0 5 1 7 3l40 40c4 4 4 10 0 14-4 3-10 3-13 0l-40-41c-4-3-4-9 0-13 1-2 4-3 6-3z m-118 3c2-2 4-3 7-3 2 0 5 1 6 3 4 4 4 10 0 13l-40 41c-3 3-9 3-13 0-4-4-4-10 0-14z m53 226c-141 0-256-115-256-256 0-141 115-256 256-256 141 0 256 115 256 256 0 141-115 256-256 256z m0-493c-131 0-237 106-237 237 0 131 106 237 237 237 131 0 237-106 237-237 0-131-106-237-237-237z m-114 142l60 0c8-27 33-47 63-47 30 0 56 20 64 47l50 0 0 19-237 0z m167 0c-7-17-24-28-44-28-19 0-36 11-43 28z"/>
<glyph unicode="&#43;" d="M256 512c-141 0-256-115-256-256 0-141 115-256 256-256 141 0 256 115 256 256 0 141-115 256-256 256z m0-493c-131 0-237 106-237 237 0 131 106 237 237 237 131 0 237-106 237-237 0-131-106-237-237-237z m89 267c2-2 5-3 7-3 2 0 5 1 7 3 3 4 3 10 0 13l-41 41c-3 3-9 3-13 0-4-4-4-10 0-14z m-151 54l-41-41c-3-3-3-9 0-13 2-2 5-3 7-3 2 0 5 1 7 3l40 40c4 4 4 10 0 14-4 3-10 3-13 0z m119-103c-42 0-76-34-76-76 0-42 34-76 76-76 42 0 76 34 76 76 0 42-34 76-76 76z m0-133c-31 0-57 26-57 57 0 32 26 57 57 57 31 0 57-25 57-57 0-31-26-57-57-57z"/>
<glyph unicode="&#44;" d="M256 512c-141 0-256-115-256-256 0-141 115-256 256-256 141 0 256 115 256 256 0 141-115 256-256 256z m0-493c-131 0-237 106-237 237 0 131 106 237 237 237 131 0 237-106 237-237 0-131-106-237-237-237z m161 246c-5 0-9-4-9-9 0-84-68-152-152-152-84 0-152 68-152 152 0 5-4 9-9 9-5 0-10-4-10-9 0-94 77-171 171-171 94 0 171 77 171 171 0 5-5 9-10 9z m-95-18c32 0 57 25 57 56 0 32-25 57-57 57-31 0-57-25-57-57 0-31 26-56 57-56z m0 94c21 0 38-17 38-38 0-21-17-38-38-38-21 0-38 17-38 38 0 21 17 38 38 38z m-132-94c31 0 57 25 57 56 0 32-26 57-57 57-32 0-57-25-57-57 0-31 25-56 57-56z m0 94c21 0 38-17 38-38 0-21-17-38-38-38-21 0-38 17-38 38 0 21 17 38 38 38z"/>
<glyph unicode="&#45;" d="M208 278c1 6-3 10-8 11l-56 9c-5 1-10-2-11-8-1-5 3-10 8-10l56-9c5-1 10 2 11 7z m48 234c-141 0-256-115-256-256 0-141 115-256 256-256 141 0 256 115 256 256 0 141-115 256-256 256z m0-19c88 0 165-48 206-119l-68-38c-9 25-34 43-62 43-31 0-58-21-65-51l-171 103c43 39 99 62 160 62z m123-180c0-26-21-48-47-48-26 0-48 22-48 48 0 26 22 47 48 47 26 0 47-21 47-47z m-123-294c-131 0-237 106-237 237 0 62 24 119 64 161l183-110c3-34 31-60 66-60 36 0 66 29 66 66 0 1 0 2 0 4l72 40c15-31 23-65 23-101 0-131-106-237-237-237z m152 183c-5 2-10-1-12-5-16-38-46-67-83-82-38-15-79-14-116 1-5 2-11 0-13-5-2-4 0-10 5-12 22-9 44-14 67-14 22 0 43 4 64 13 42 17 75 49 93 91 2 5 0 11-5 13z"/>
<glyph unicode="&#46;" d="M256 512c-141 0-256-115-256-256 0-141 115-256 256-256 141 0 256 115 256 256 0 141-115 256-256 256z m0-19c91 0 170-51 210-127l-23-15-54 0 0-4c-12 19-33 32-57 32-27 0-49-15-60-38l-32 0c-11 23-33 38-60 38-24 0-45-13-57-32l0 4-54 0-23 15c40 76 119 127 210 127z m123-180c0-26-21-48-47-48-26 0-48 22-48 48 0 26 22 47 48 47 26 0 47-21 47-47z m-151 0c0-26-22-48-48-48-26 0-47 22-47 48 0 26 21 47 47 47 26 0 48-21 48-47z m28-294c-131 0-237 106-237 237 0 33 7 64 19 93l25-17 54 0c-2-6-3-13-3-19 0-37 30-66 66-66 37 0 67 29 67 66 0 3-1 6-1 9l20 0c0-3-1-6-1-9 0-37 30-66 67-66 36 0 66 29 66 66 0 6-1 13-3 19l54 0 25 17c12-29 19-60 19-93 0-131-106-237-237-237z m161 246c-5 0-9-4-9-9 0-84-68-152-152-152-84 0-152 68-152 152 0 5-4 9-9 9-5 0-10-4-10-9 0-94 77-171 171-171 94 0 171 77 171 171 0 5-5 9-10 9z"/>
<glyph unicode="&#47;" d="M256 512c-141 0-256-115-256-256 0-141 115-256 256-256 141 0 256 115 256 256 0 141-115 256-256 256z m0-493c-131 0-237 106-237 237 0 131 106 237 237 237 131 0 237-106 237-237 0-131-106-237-237-237z m152 183c-5 2-10-1-12-5-16-38-46-67-83-82-38-15-79-14-116 1-5 2-11 0-13-5-2-4 0-10 5-12 22-9 44-14 67-14 22 0 43 4 64 13 42 17 75 49 93 91 2 5 0 11-5 13z m-106 129l54-17c5-1 10 1 12 6 2 5-1 11-6 12l-54 18c-5 1-11-2-12-7-2-5 1-10 6-12z m-95 12c-2 5-7 8-12 6l-54-17c-5-1-8-7-7-12 2-5 7-7 12-6l55 17c5 2 7 7 6 12z m-17-78l0 38-19 0 0-38z m142 38l-19 0 0-38 19 0z m0-56l-19 0 0-19 19 0z m-142 0l-19 0 0-19 19 0z m123-57l19 0 0 19-19 0z"/>
<glyph unicode="&#58;" d="M256 512c-141 0-256-115-256-256 0-141 115-256 256-256 141 0 256 115 256 256 0 141-115 256-256 256z m0-493c-131 0-237 106-237 237 0 131 106 237 237 237 131 0 237-106 237-237 0-131-106-237-237-237z m104 351l-57 0c-5 0-9-4-9-10 0-5 4-9 9-9l57 0c6 0 10 4 10 9 0 6-4 10-10 10z m-151-10c0 6-5 10-10 10l-57 0c-5 0-9-4-9-10 0-5 4-9 9-9l57 0c5 0 10 4 10 9z m116-116l-73-73-73 73-13-14 73-73-73-72 13-14 73 73 73-73 14 14-73 72 73 73z"/>
<glyph unicode="&#59;" d="M256 512c-141 0-256-115-256-256 0-141 115-256 256-256 141 0 256 115 256 256 0 141-115 256-256 256z m0-493c-131 0-237 106-237 237 0 131 106 237 237 237 131 0 237-106 237-237 0-131-106-237-237-237z m0 209c-71 0-135-45-160-111-2-5 1-10 6-12 5-2 10 1 12 5 22 59 79 99 142 99 63 0 120-40 142-99 1-3 5-6 9-6 1 0 2 0 3 1 5 2 8 7 6 12-25 66-89 111-160 111z m-121 42l67 67-67 67-14-14 54-53-54-54z m250 13l-54 54 54 53-14 14-67-67 67-67z"/>
<glyph unicode="&#60;" d="M133 142l237 0 0 19-237 0z m123 370c-141 0-256-115-256-256 0-141 115-256 256-256 141 0 256 115 256 256 0 141-115 256-256 256z m0-493c-131 0-237 106-237 237 0 131 106 237 237 237 131 0 237-106 237-237 0-131-106-237-237-237z m0 246c42 0 76 35 76 76 0 42-34 76-76 76-42 0-76-34-76-76 0-41 34-76 76-76z m0 133c31 0 57-25 57-57 0-31-26-57-57-57-31 0-57 26-57 57 0 32 26 57 57 57z m9-28l-18 0 0-67 18 0z"/>
<glyph unicode="&#61;" d="M256 512c-141 0-256-115-256-256 0-141 115-256 256-256 141 0 256 115 256 256 0 141-115 256-256 256z m0-493c-131 0-237 106-237 237 0 131 106 237 237 237 131 0 237-106 237-237 0-131-106-237-237-237z m0 209c-71 0-135-45-160-111-2-5 1-10 6-12 5-2 10 1 12 5 22 59 79 99 142 99 63 0 120-40 142-99 1-3 5-6 9-6 1 0 2 0 3 1 5 2 8 7 6 12-25 66-89 111-160 111z m-27 135l-14 14-53-54-54 54-14-14 68-67z m182 0l-13 14-54-54-53 54-14-14 67-67z"/>
<glyph unicode="&#62;" d="M256 512c-141 0-256-115-256-256 0-141 115-256 256-256 141 0 256 115 256 256 0 141-115 256-256 256z m0-493c-131 0-237 106-237 237 0 131 106 237 237 237 131 0 237-106 237-237 0-131-106-237-237-237z m154 208c-5 2-10-1-12-6-22-58-79-98-142-98-63 0-120 40-142 98-1 4-5 7-9 7-1 0-2-1-3-1-5-2-8-7-6-12 25-66 89-111 160-111 71 0 135 45 160 111 2 5-1 10-6 12z m-181 136l-14 14-53-54-54 54-14-14 68-67z m182 0l-13 14-54-54-53 54-14-14 67-67z"/>
<glyph unicode="&#63;" d="M256 512c-141 0-256-115-256-256 0-141 115-256 256-256 141 0 256 115 256 256 0 141-115 256-256 256z m0-493c-131 0-237 106-237 237 0 131 106 237 237 237 131 0 237-106 237-237 0-131-106-237-237-237z m124 327l-20-20-20 20-13-13 20-20-20-20 13-14 20 20 20-20 14 14-20 20 20 20z m-199-67l14 14-20 20 20 20-14 13-20-20-20 20-13-13 20-20-20-20 13-14 20 20z m178-112l-27 52-38-68-30 50-26-61-37 111-58-104 17-9 37 66 39-117 31 72 27-45 37 65 31-61 26 78-18 6z"/>
<glyph unicode="&#64;" d="M302 283c3 0 5 1 7 3l40 40c4 4 4 10 0 14-4 3-10 3-13 0l-40-41c-4-3-4-9 0-13 1-2 4-3 6-3z m-159 0c3 0 5 1 7 3 4 4 4 10 0 13l-40 41c-4 3-10 3-14 0-3-4-3-10 0-14l41-40c2-2 4-3 6-3z m113 229c-141 0-256-115-256-256 0-141 115-256 256-256 141 0 256 115 256 256 0 141-115 256-256 256z m0-493c-131 0-237 106-237 237 0 131 106 237 237 237 131 0 237-106 237-237 0-131-106-237-237-237z m-144 180l22-114 249 0-35 114z m38-95l-15 76 29 0 22-76z m56 0l-23 76 47 0 23-76z m67 0l-23 76 46 0 15-76z m57 0l-15 76 19 0 23-76z"/>
<glyph unicode="&#91;" d="M256 512c-141 0-256-115-256-256 0-141 115-256 256-256 141 0 256 115 256 256 0 141-115 256-256 256z m0-493c-131 0-237 106-237 237 0 131 106 237 237 237 131 0 237-106 237-237 0-131-106-237-237-237z m66 228c32 0 57 25 57 56 0 32-25 57-57 57-31 0-57-25-57-57 0-31 26-56 57-56z m0 94c21 0 38-17 38-38 0-21-17-38-38-38-21 0-38 17-38 38 0 21 17 38 38 38z m-132-94c31 0 57 25 57 56 0 32-26 57-57 57-32 0-57-25-57-57 0-31 25-56 57-56z m0 94c21 0 38-17 38-38 0-21-17-38-38-38-21 0-38 17-38 38 0 21 17 38 38 38z m228-157l-8-17c-5-4-24-18-61-25-45-9-61-9-115 45-14 14-30 20-46 17-43-9-71-79-74-87l18-7c7 19 32 69 60 75 9 2 19-2 29-12 59-58 80-60 132-50 48 10 70 31 71 31l1 1 10 21z"/>
<glyph unicode="&#93;" d="M256 512c-141 0-256-115-256-256 0-141 115-256 256-256 141 0 256 115 256 256 0 141-115 256-256 256z m0-493c-131 0-237 106-237 237 0 131 106 237 237 237 131 0 237-106 237-237 0-131-106-237-237-237z m56 264c2 0 5 1 6 3l41 40c3 4 3 10 0 14-4 3-10 3-14 0l-40-41c-4-3-4-9 0-13 2-2 4-3 7-3z m-118 3c1-2 4-3 6-3 3 0 5 1 7 3 4 4 4 10 0 13l-40 41c-4 3-10 3-14 0-3-4-3-10 0-14z m204-115c-1 0-122 0-205 37-60 27-93 31-105 13-8-11-3-24-2-26 1-2 28-54 82-54 4 0 9 1 14 1 55 10 215 10 216 10l1 0c0 0 0 0 0 0l0 0c0 0 0 0 0 0l0 0c0 0 0 0 0 0 0 0 0 0 0 0l0 0 1 0c4 0 8 4 8 9 0 5-5 10-10 10z m-219-10c-4-1-8-1-11-1-42 0-64 43-64 43-1 1-2 5-1 7 1 1 4 3 10 3 11 0 32-4 73-23 22-9 47-17 71-22-31-2-60-4-78-7z"/>
<glyph unicode="&#94;" d="M256 512c-141 0-256-115-256-256 0-141 115-256 256-256 141 0 256 115 256 256 0 141-115 256-256 256z m0-493c-131 0-237 106-237 237 0 131 106 237 237 237 131 0 237-106 237-237 0-131-106-237-237-237z m170 269c-2 3-5 6-9 6-4 0-8-3-9-6-23-65-84-108-152-108-68 0-129 43-152 108-1 3-5 6-9 6-4 0-7-3-9-6-7-20-10-40-10-60 0-100 81-181 180-181 99 0 180 81 180 181 0 20-3 40-10 60z m-170-222c-89 0-161 73-161 162 0 9 1 19 2 28 31-58 92-95 159-95 67 0 128 37 159 95 1-9 2-19 2-28 0-89-72-162-161-162z m-71 309c18 0 33-15 33-34l19 0c0 38-23 52-52 52-29 0-52-14-52-52l19 0c0 19 15 34 33 34z m133 0c18 0 33-15 33-34l19 0c0 38-24 52-52 52-29 0-53-14-53-52l19 0c0 19 15 34 34 34z"/>
<glyph unicode="&#95;" d="M256 512c-141 0-256-115-256-256 0-141 115-256 256-256 141 0 256 115 256 256 0 141-115 256-256 256z m0-493c-131 0-237 106-237 237 0 131 106 237 237 237 131 0 237-106 237-237 0-131-106-237-237-237z m164 189c-5 2-10-1-12-6-23-64-84-107-152-107-89 0-161 72-161 161 0 18 3 36 9 54 2 5-1 10-6 12-5 2-10-1-12-6-7-20-10-40-10-60 0-99 81-180 180-180 76 0 145 48 170 120 2 5-1 10-6 12z m-235 167c18 0 33-15 33-34l19 0c0 38-23 52-52 52-29 0-52-14-52-52l19 0c0 19 15 34 33 34z m133 0c18 0 33-15 33-34l19 0c0 38-24 52-52 52-29 0-53-14-53-52l19 0c0 19 15 34 34 34z m-62-147c5 0 9 4 9 9l0 57c0 5-4 9-9 9-5 0-9-4-9-9l0-57c0-5 4-9 9-9z"/>
<glyph unicode="&#96;" d="M332 294l-19 0 0-38 19 0z m0-57l-19 0 0-19 19 0z m-19-57l19 0 0 19-19 0z m-57 332c-141 0-256-115-256-256 0-141 115-256 256-256 141 0 256 115 256 256 0 141-115 256-256 256z m0-493c-131 0-237 106-237 237 0 131 106 237 237 237 131 0 237-106 237-237 0-131-106-237-237-237z m-28 341l-19 0c0-19-15-33-34-33-18 0-33 14-33 33l-19 0c0-38 24-52 52-52 29 0 53 14 53 52z m90-52c28 0 52 14 52 52l-19 0c0-19-15-33-33-33-19 0-34 14-34 33l-19 0c0-38 24-52 53-52z m-165-166l-2-19c30-3 103-10 161-10 40 0 73 3 83 13l-13 13c-13-12-129-8-229 3z"/>
<glyph unicode="&#123;" d="M360 303l-57 0c-5 0-9-4-9-9 0-5 4-10 9-10l57 0c6 0 10 5 10 10 0 5-4 9-10 9z m-151-9c0 5-5 9-10 9l-57 0c-5 0-9-4-9-9 0-5 4-10 9-10l57 0c5 0 10 5 10 10z m47 218c-141 0-256-115-256-256 0-141 115-256 256-256 141 0 256 115 256 256 0 141-115 256-256 256z m0-19c69 0 130-29 174-76l-348 0c44 47 105 76 174 76z m-189-95l379 0c13-17 23-36 31-57l-442 0c8 21 18 40 32 57z m189-379c-131 0-237 106-237 237 0 23 3 45 9 66l456 0c6-21 9-43 9-66 0-131-106-237-237-237z m-73 122l13-14c16 16 38 25 60 25 22 0 44-9 60-25l13 14c-20 19-46 30-73 30-27 0-53-11-73-30z"/>
<glyph unicode="&#124;" d="M256 512c-141 0-256-115-256-256 0-141 115-256 256-256 141 0 256 115 256 256 0 141-115 256-256 256z m0-19c95 0 178-57 215-138l-2 4-50-34c-12 22-36 35-68 35-34 0-59-14-70-38l-50 0c-11 24-36 38-70 38-32 0-56-13-68-35l-50 34-2-4c37 81 120 138 215 138z m152-199c0-37 0-57-57-57-32 0-57 26-57 57 0 35 31 47 57 47 26 0 57-12 57-47z m-190 0c0-31-25-57-57-57-57 0-57 20-57 57 0 35 31 47 57 47 26 0 57-12 57-47z m38-275c-131 0-237 106-237 237 0 30 6 59 16 85l52-34c-1-4-2-9-2-13 0-37 0-76 76-76 42 0 76 34 76 76 0 3 0 6-1 9l40 0c-1-3-1-6-1-9 0-42 34-76 76-76 76 0 76 39 76 76 0 4-1 9-2 13l52 34c10-26 16-55 16-85 0-131-106-237-237-237z m-73 122l13-14c16 16 38 25 60 25 22 0 44-9 60-25l13 14c-20 19-46 30-73 30-27 0-53-11-73-30z"/>
<glyph unicode="&#125;" d="M256 512c-141 0-256-115-256-256 0-141 115-256 256-256 141 0 256 115 256 256 0 141-115 256-256 256z m0-493c-131 0-237 106-237 237 0 131 106 237 237 237 131 0 237-106 237-237 0-131-106-237-237-237z m85 237c26 0 48 21 48 47 0 27-22 48-48 48-26 0-47-21-47-48 0-26 21-47 47-47z m0 76c16 0 29-13 29-29 0-15-13-28-29-28-15 0-28 13-28 28 0 16 13 29 28 29z m-4-199l-185 0 0-19 193 0 69 69-13 13z m-157 199c16 0 29-13 29-29l19 0c0 27-22 48-48 48-26 0-47-21-47-48l19 0c0 16 12 29 28 29z"/>
<glyph unicode="&#126;" d="M360 303l-57 0c-5 0-9-4-9-9 0-5 4-10 9-10l57 0c6 0 10 5 10 10 0 5-4 9-10 9z m-151-9c0 5-5 9-10 9l-57 0c-5 0-9-4-9-9 0-5 4-10 9-10l57 0c5 0 10 5 10 10z m47 218c-141 0-256-115-256-256 0-141 115-256 256-256 141 0 256 115 256 256 0 141-115 256-256 256z m0-493c-131 0-237 106-237 237 0 131 106 237 237 237 131 0 237-106 237-237 0-131-106-237-237-237z m-73 122l13-14c16 16 38 25 60 25 22 0 44-9 60-25l13 14c-20 19-46 30-73 30-27 0-53-11-73-30z m-117 219l0-19 380 0 0 19z"/>
<glyph unicode="&#92;" d="M256 512c-141 0-256-115-256-256 0-141 115-256 256-256 141 0 256 115 256 256 0 141-115 256-256 256z m0-19c117 0 215-86 234-198-47 62-146 128-255 103-97-22-145 4-158 13 44 50 108 82 179 82z m-191-97c8-5 25-15 52-21-25-17-68-47-95-80 7 38 22 72 43 101z m191-377c-130 0-236 105-237 235 18 51 120 113 128 117 24-2 55 0 92 8 120 28 227-64 254-125-1-130-107-235-237-235z m81 114l-185 0 0-19 193 0 69 69-13 13z m-157 161c16 0 29-13 29-29l19 0c0 27-22 48-48 48-26 0-47-21-47-48l19 0c0 16 12 29 28 29z m152 0c16 0 28-13 28-29l19 0c0 27-21 48-47 48-26 0-48-21-48-48l19 0c0 16 13 29 29 29z"/>
<glyph unicode="&#57344;" d="M256 512c-112 0-207-72-242-172-4-3-6-8-4-12-6-23-10-47-10-72 0-141 115-256 256-256 141 0 256 115 256 256 0 141-115 256-256 256z m0-19c109 0 202-74 229-175 0 0 0 0 0 0-11-20-20-35-27-48-5 30-16 64-22 84-2 3-5 6-9 6-4 1-7-2-9-5-14-29-32-56-40-64-13 30-58 47-60 48-4 1-9 0-11-4l-45-74c-7 30-20 73-39 81-7 3-14 2-20-2-21-14-32-63-37-97l-25 55c-1 2-3 4-6 5-3 1-6 0-8-2-30-24-36-61-35-94l-61 123c31 94 120 163 225 163z m0-474c-131 0-237 106-237 237 0 16 2 31 4 46l82-164c2-3 5-5 9-5 1 0 2 0 4 1 4 1 6 7 5 11-1 1-31 86 7 132l32-72c2-4 6-7 10-6 4 1 8 4 8 9 4 38 16 104 34 116 1 1 1 1 1 0 11-4 26-50 34-91 0-3 3-6 7-7 4-1 8 1 10 4l53 88c14-7 36-20 42-37 3-10 10-11 13-11 13-1 29 18 50 56 11-35 17-67 18-86-13-26-10-28-5-31 2-3 8-5 15 2 5 5 7 13 8 23 7 14 19 35 31 56 1-11 2-23 2-34 0-131-106-237-237-237z m114 114l-95 0c-5 0-10-4-10-10 0-5 5-9 10-9l95 0c5 0 9 4 9 9 0 6-4 10-9 10z"/>
<glyph unicode="&#57345;" d="M509 295c1 3 2 4 2 5l-3 1c-21 120-126 211-252 211-141 0-256-115-256-256 0-141 115-256 256-256 141 0 256 115 256 256 0 13-1 26-3 39z m-34 53c-33-16-110-43-136-10-11 14-53 61-111 67-7 0-13 0-20 0 3 8 0 16-7 24 38 11 117 26 143 0 17-16 35-22 50-22 15 0 27 5 36 10 18-20 34-44 45-69z m-219 145c61 0 117-23 160-62-11-5-34-12-58 12-41 41-158 6-171 2l1-3c-12 9-26 18-40 25 33 17 69 26 108 26z m-127-37c32-16 61-37 62-44l-6-12c-14-5-27-12-39-23-22-19-42-27-61-26-19 2-30 15-30 15l-14-11c19 41 50 77 88 101z m-89-102c2-2 17-19 43-21 24-3 49 7 75 30 21 17 44 25 68 23 40-4 77-34 98-60 14-17 34-22 56-22 40 0 85 18 101 26 4-11 6-21 8-32-9-18-32-55-64-61-43-9-68 7-105 45-101 100-144 78-203 29-49-41-90-3-91-1l-1 0c4 15 9 30 15 44z m216-335c-131 0-237 106-237 237 0 11 1 23 2 33 18-12 61-33 108 7 54 45 86 64 177-28 33-33 61-52 98-52 8 0 16 0 25 2 28 6 50 29 64 49 0-3 0-7 0-11 0-131-106-237-237-237z m-76 133c-16 0-28 12-28 28l-19 0c0-26 21-47 47-47 26 0 48 21 48 47l-19 0c0-16-13-28-29-28z m161 0c-15 0-28 12-28 28l-19 0c0-26 21-47 47-47 26 0 48 21 48 47l-19 0c0-16-13-28-29-28z"/>
<glyph unicode="&#57346;" d="M256 512c-141 0-256-115-256-256 0-141 115-256 256-256 141 0 256 115 256 256 0 141-115 256-256 256z m0-493c-131 0-237 106-237 237 0 131 106 237 237 237 131 0 237-106 237-237 0-131-106-237-237-237z m62 321c-3 3-9 3-13 0-4-4-4-10 0-14l40-40c2-2 5-3 7-3 2 0 5 1 7 3 3 4 3 10 0 13z m-124 0l-41-41c-3-3-3-9 0-13 2-2 5-3 7-3 2 0 5 1 7 3l40 40c4 4 4 10 0 14-4 3-10 3-13 0z m-52-179l237 0 0 19-237 0z m256 218l-104 0c-16 0-29-13-29-28l0-76c0-16 13-28 29-28l104 0c16 0 29 12 29 28l0 76c0 15-13 28-29 28z m10-104c0-5-5-10-10-10l-104 0c-5 0-10 5-10 10l0 76c0 5 5 9 10 9l104 0c5 0 10-4 10-9z m-161 0l0 76c0 15-13 28-29 28l-104 0c-16 0-29-13-29-28l0-76c0-16 13-28 29-28l104 0c16 0 29 12 29 28z m-143 0l0 76c0 5 5 9 10 9l104 0c5 0 10-4 10-9l0-76c0-5-5-10-10-10l-104 0c-5 0-10 5-10 10z"/>
<glyph unicode="&#57347;" d="M437 437c-100 100-262 100-362 0-100-100-100-262 0-362 100-100 262-100 362 0 100 100 100 262 0 362z m-13-349c-93-92-243-92-336 0-92 93-92 243 0 336 93 92 243 92 336 0 92-93 92-243 0-336z m-275 289c-4 3-10 3-14 0-66-67-66-175 0-242 67-66 175-66 242 0 3 4 3 10 0 14z m-7-21l34-33-72-71c-1 37 12 75 38 104z m-17-177c-9 15-15 32-18 49l82 82 33-34z m24-30c-5 4-9 9-13 14l100 100 27-27-100-100c-5 4-10 8-14 13z m30-24l97 97 34-33-82-82c-17 3-34 9-49 18z m73-21l71 71 33-33c-29-26-67-39-104-38z m145 199l-40-40c-4-4-4-10 0-14 3-3 9-3 13 0l40 41c4 3 4 9 0 13-3 4-9 4-13 0z m-134 54l40 40c4 4 4 10 0 13-4 4-10 4-13 0l-41-40c-3-4-3-10 0-13 4-4 10-4 14 0z"/>
<glyph unicode="&#57348;" d="M256 512c-141 0-256-115-256-256 0-141 115-256 256-256 141 0 256 115 256 256 0 141-115 256-256 256z m0-493c-131 0-237 106-237 237 0 131 106 237 237 237 131 0 237-106 237-237 0-131-106-237-237-237z m104 351l-57 0c-5 0-9-4-9-10 0-5 4-9 9-9l57 0c6 0 10 4 10 9 0 6-4 10-10 10z m-218-19l57 0c5 0 10 4 10 9 0 6-5 10-10 10l-57 0c-5 0-9-4-9-10 0-5 4-9 9-9z m98-131c-37 20-76 31-106 31-32 0-45-12-51-23-9-17-3-39 16-64 18-22 46-44 78-61 37-20 76-32 106-32l0 0c32 0 45 13 51 23 18 33-23 87-94 126z m77-117c-4-8-16-13-34-13-27 0-62 11-97 29-30 17-55 37-72 57-14 18-19 34-14 43 4 8 16 13 34 13 27 0 63-11 97-29 64-34 97-80 86-100z m-52 222l-18-6 15-44-25 0 0-19 51 0z"/>
<glyph unicode="&#57349;" d="M256 512c-141 0-256-115-256-256 0-141 115-256 256-256 141 0 256 115 256 256 0 141-115 256-256 256z m0-493c-55 0-105 19-145 50 1 1 2 2 3 4 22 58 79 98 142 98 63 0 120-40 142-99 1-1 2-2 3-3-40-31-90-50-145-50z m159 62c-25 65-89 109-159 109-70 0-134-44-159-109-48 43-78 105-78 175 0 131 106 237 237 237 131 0 237-106 237-237 0-70-30-132-78-175z m-70 297l-40-41c-4-3-4-9 0-13 2-2 4-3 7-3 2 0 5 1 6 3l41 40c3 4 3 10 0 14-4 3-10 3-14 0z m-178 0c-4 3-10 3-14 0-3-4-3-10 0-14l41-40c1-2 4-3 6-3 3 0 5 1 7 3 4 4 4 10 0 13z m4-56c-11 0-19-8-19-19 0-10 8-19 19-19 10 0 19 9 19 19 0 11-9 19-19 19z m170 0c-10 0-19-8-19-19 0-10 9-19 19-19 11 0 19 9 19 19 0 11-8 19-19 19z"/>
<glyph unicode="&#57350;" d="M256 512c-141 0-256-115-256-256 0-141 115-256 256-256 141 0 256 115 256 256 0 141-115 256-256 256z m0-493c-55 0-105 19-145 50 1 1 2 2 3 4 22 58 79 98 142 98 63 0 120-40 142-99 1-1 2-2 3-3-40-31-90-50-145-50z m159 62c-25 65-89 109-159 109-70 0-134-44-159-109-48 43-78 105-78 175 0 131 106 237 237 237 131 0 237-106 237-237 0-70-30-132-78-175z m-212 297l-40-41c-4-3-4-9 0-13 2-2 4-3 7-3 2 0 4 1 6 3l40 40c4 4 4 10 0 14-3 3-9 3-13 0z m106 0c-4 3-10 3-13 0-4-4-4-10 0-14l40-40c2-2 4-3 6-3 3 0 5 1 7 3 4 4 4 10 0 13z m4-56c-11 0-19-8-19-19 0-10 8-19 19-19 10 0 19 9 19 19 0 11-9 19-19 19z m-114 0c-10 0-19-8-19-19 0-10 9-19 19-19 11 0 19 9 19 19 0 11-8 19-19 19z"/>
<glyph unicode="&#57351;" d="M256 512c-141 0-256-115-256-256 0-141 115-256 256-256 141 0 256 115 256 256 0 141-115 256-256 256z m0-493c-131 0-237 106-237 237 0 131 106 237 237 237 131 0 237-106 237-237 0-131-106-237-237-237z m-40 340c-3 3-9 3-13 0l-40-41c-4-3-4-9 0-13 2-2 4-3 7-3 2 0 4 1 6 3l40 40c4 4 4 10 0 14z m93 0c-4 3-10 3-13 0-4-4-4-10 0-14l40-40c2-2 4-3 6-3 3 0 5 1 7 3 4 4 4 10 0 13z m-53-112c-32 0-57-46-57-105 0-58 25-104 57-104 32 0 57 46 57 104 0 59-25 105-57 105z m0-190c-18 0-38 35-38 85 0 51 20 86 38 86 18 0 38-35 38-86 0-50-20-85-38-85z"/>
<glyph unicode="&#57352;" d="M256 512c-141 0-256-115-256-256 0-141 115-256 256-256 141 0 256 115 256 256 0 141-115 256-256 256z m0-493c-131 0-237 106-237 237 0 131 106 237 237 237 131 0 237-106 237-237 0-131-106-237-237-237z m-114 142l237 0 0 19-237 0z m0-38l237 0 0 19-237 0z m190 275c-27 0-48-31-48-71 0-40 21-71 48-71 26 0 47 31 47 71 0 40-21 71-47 71z m-27-86c-1 5-2 10-2 15 0 31 15 52 29 52 5 0 11-3 16-10z m27-37c-7 0-14 6-20 15l45 60c2-7 3-14 3-23 0-31-15-52-28-52z m-152-19c27 0 48 31 48 71 0 40-21 71-48 71-26 0-47-31-47-71 0-40 21-71 47-71z m29 71c0-31-15-52-29-52-7 0-14 6-19 15l45 60c1-7 3-14 3-23z m-57 0c0 31 15 52 28 52 6 0 11-3 16-10l-43-57c-1 5-1 10-1 15z"/>
<glyph unicode="&#57353;" d="M275 511c-6 1-13 1-19 1-141 0-256-115-256-256 0-141 115-256 256-256 141 0 256 115 256 256 0 135-105 246-237 255z m-19-492c-131 0-237 106-237 237 0 131 106 237 237 237 131 0 237-106 237-237 0-131-106-237-237-237z m-47 351l-19 0 0-6-52-51-5 0 0-19 76 0z m-19-57l-25 0 25 24z m189 0l-5 0-52 51 0 6-19 0 0-76 76 0z m-57 0l0 24 25-24z m-185-175l11-16c36 26 78 39 122 39 41 0 80-11 114-32l10 16c-37 23-80 35-124 35-48 0-94-14-133-42z"/>
<glyph unicode="&#57354;" d="M256 512c-141 0-256-115-256-256 0-141 115-256 256-256 141 0 256 115 256 256 0 141-115 256-256 256z m0-493c-131 0-237 106-237 237 0 131 106 237 237 237 131 0 237-106 237-237 0-131-106-237-237-237z m9 256c6 0 10 4 10 9l0 57c0 6-4 10-10 10-5 0-9-4-9-10l0-57c0-5 4-9 9-9z m-85 0c5 0 10 4 10 9l0 57c0 6-5 10-10 10-5 0-9-4-9-10l0-57c0-5 4-9 9-9z m209-10l0-18 18 0c-5-80-71-143-151-143-84 0-152 68-152 152 0 5-4 9-9 9-5 0-10-4-10-9 0-94 77-171 171-171 91 0 165 72 170 162l20 0 0 18z"/>
<glyph unicode="&#57355;" d="M275 511c-6 1-13 1-19 1-141 0-256-115-256-256 0-141 115-256 256-256 141 0 256 115 256 256 0 135-105 246-237 255z m-19-492c-131 0-237 106-237 237 0 131 106 237 237 237 131 0 237-106 237-237 0-131-106-237-237-237z m-108 294l31 67-17 8-44-94 75 0-31-60 17-8 45 87z m192 67l-17 8-44-94 75 0-31-60 17-8 45 87-76 0z m-84-200c-26 0-47-21-47-47 0-26 21-48 47-48 26 0 47 22 47 48 0 26-21 47-47 47z m0-76c-16 0-28 13-28 29 0 15 12 28 28 28 16 0 28-13 28-28 0-16-12-29-28-29z"/>
<glyph unicode="&#57356;" d="M256 512c-141 0-256-115-256-256 0-141 115-256 256-256 141 0 256 115 256 256 0 141-115 256-256 256z m0-493c-131 0-237 106-237 237 0 131 106 237 237 237 131 0 237-106 237-237 0-131-106-237-237-237z m-47 246l19 0c0 27-22 48-48 48-26 0-47-21-47-48l19 0c0 16 12 29 28 29 16 0 29-13 29-29z m123 48c-26 0-48-21-48-48l19 0c0 16 13 29 29 29 16 0 28-13 28-29l19 0c0 27-21 48-47 48z m-76-95c-47 0-85-38-85-85 0-47 38-86 85-86 47 0 85 39 85 86 0 47-38 85-85 85z m0-152c-37 0-66 30-66 67 0 36 29 66 66 66 37 0 66-30 66-66 0-37-29-67-66-67z m0 105c-21 0-38-17-38-38 0-21 17-38 38-38 21 0 38 17 38 38 0 21-17 38-38 38z"/>
<glyph unicode="&#57357;" d="M256 512c-141 0-256-115-256-256 0-141 115-256 256-256 141 0 256 115 256 256 0 141-115 256-256 256z m0-493c-131 0-237 106-237 237 0 131 106 237 237 237 131 0 237-106 237-237 0-131-106-237-237-237z m76 322c-16 0-29-12-29-28 0-16 13-29 29-29 16 0 28 13 28 29 0 16-12 28-28 28z m0 38c-37 0-67-30-67-66 0-37 30-66 67-66 36 0 66 29 66 66 0 36-30 66-66 66z m0-114c-26 0-48 22-48 48 0 26 22 47 48 47 26 0 47-21 47-47 0-26-21-48-47-48z m-133 48c0 16-13 28-28 28-16 0-29-12-29-28 0-16 13-29 29-29 15 0 28 13 28 29z m38 0c0 36-30 66-66 66-37 0-67-30-67-66 0-37 30-66 67-66 36 0 66 29 66 66z m-114 0c0 26 22 47 48 47 26 0 47-21 47-47 0-26-21-48-47-48-26 0-48 22-48 48z m180-153c0-3 0-6 0-8 0-32-25-57-56-57-32 0-57 25-57 57l-19 0c0-42 34-76 76-76 41 0 75 34 75 76 0 3 0 7 0 11z"/>
<glyph unicode="&#57358;" d="M461 512l-410 0c-28 0-51-23-51-51l0-410c0-28 23-51 51-51l410 0c28 0 51 23 51 51l0 410c0 28-23 51-51 51z m31-461c0-17-14-31-31-31l-410 0c-17 0-31 14-31 31l0 410c0 17 14 31 31 31l410 0c17 0 31-14 31-31z m-180 214l-92 53c-3 3-7 3-10 0-3-2-5-5-5-9l0-105c0-4 2-7 5-9 2-1 3-1 5-1 2 0 3 0 5 1l92 53c3 2 5 5 5 9 0 3-2 6-5 8z m-87-44l0 71 62-35z"/>
<glyph unicode="&#57359;" d="M461 512l-410 0c-28 0-51-23-51-51l0-410c0-28 23-51 51-51l410 0c28 0 51 23 51 51l0 410c0 28-23 51-51 51z m31-461c0-17-14-31-31-31l-410 0c-17 0-31 14-31 31l0 410c0 17 14 31 31 31l410 0c17 0 31-14 31-31z m-190 266c-2 1-3 1-5 1-2 0-3 0-5-1l-92-53c-3-1-5-4-5-8 0-4 2-7 5-9l92-53c3-3 7-3 10 0 3 2 5 5 5 9l0 106c0 3-2 7-5 8z m-15-96l-62 35 62 35z"/>
<glyph unicode="&#57360;" d="M461 512l-410 0c-28 0-51-23-51-51l0-410c0-28 23-51 51-51l410 0c28 0 51 23 51 51l0 410c0 28-23 51-51 51z m31-461c0-17-14-31-31-31l-410 0c-17 0-31 14-31 31l0 410c0 17 14 31 31 31l410 0c17 0 31-14 31-31z m-227 261c-2 3-5 5-9 5-4 0-7-2-9-5l-53-92c-3-3-3-7 0-10 2-3 5-5 9-5l105 0c4 0 7 2 9 5 1 2 1 3 1 5 0 2 0 3-1 5z m-44-87l35 62 35-62z"/>
<glyph unicode="&#57361;" d="M461 512l-410 0c-28 0-51-23-51-51l0-410c0-28 23-51 51-51l410 0c28 0 51 23 51 51l0 410c0 28-23 51-51 51z m31-461c0-17-14-31-31-31l-410 0c-17 0-31 14-31 31l0 410c0 17 14 31 31 31l410 0c17 0 31-14 31-31z m-183 256l-106 0c-4 0-7-2-9-5-3-3-3-7 0-10l53-92c2-3 5-5 9-5 4 0 7 2 9 5l53 92c1 2 1 3 1 5 0 2 0 3-1 5-2 3-6 5-9 5z m-53-82l-35 62 71 0z"/>
<glyph unicode="&#57362;" d="M147 256l237 239c4 4 4 10 0 14-4 4-10 4-14 0l-244-245c-2-2-3-5-3-8 0-3 1-5 3-7l244-245c2-2 4-3 7-3 3 0 5 1 7 3 4 4 4 10 0 14z"/>
<glyph unicode="&#57363;" d="M384 264l-244 245c-4 4-10 4-14 0-4-4-4-10 0-14l237-239-237-238c-4-4-4-10 0-14 2-2 4-3 7-3 3 0 5 1 7 3l244 245c2 2 3 5 3 7 0 3-1 6-3 8z"/>
<glyph unicode="&#57364;" d="M509 386c-4 4-10 4-14 0l-239-239-239 239c-4 4-10 4-14 0-2-2-3-4-3-7 0-3 1-5 3-7l246-246c2-2 5-3 7-3 3 0 5 1 7 3l246 246c4 4 4 10 0 14z"/>
<glyph unicode="&#57365;" d="M509 140l-246 246c-2 2-4 3-7 3-3 0-5-1-7-3l-246-246c-2-2-3-4-3-7 0-3 1-5 3-7 4-4 10-4 14 0l239 239 239-239c4-4 10-4 14 0 4 4 4 10 0 14z"/>
<glyph unicode="&#57366;" d="M486 125l-367 0c-54 0-97 44-97 98 0 55 43 98 97 98l352 0-47-46c-5-5-5-11 0-16 2-2 4-3 7-3 4 0 6 1 8 3l73 73-72 73c-4 5-11 5-15 0-5-4-5-11 0-15l46-47-352 0c-66 0-119-53-119-120 0-66 53-120 119-120l367 0c5 0 11 5 11 11 0 7-6 11-11 11z"/>
<glyph unicode="&#57367;" d="M393 343l-352 0 46 47c5 4 5 11 0 15-4 5-11 5-15 0l-72-73 72-73c2-2 5-3 8-3 2 0 5 1 7 3 5 5 5 11 0 16l-46 46 352 0c54 0 97-43 97-98 0-54-43-98-97-98l-367 0c-5 0-11-4-11-11 0-6 5-11 11-11l367 0c66 0 119 54 119 120 0 67-53 120-119 120z"/>
<glyph unicode="&#57368;" d="M398 497c-7 0-11-5-11-11l0-367c0-54-44-97-98-97-55 0-98 43-98 97l0 352 46-46c5-5 11-5 16 0 2 1 3 4 3 7 0 4-1 6-3 8l-73 72-73-72c-5-4-5-11 0-15 4-5 11-5 15 0l47 46 0-352c0-66 53-119 120-119 66 0 120 53 120 119l0 367c0 6-5 11-11 11z"/>
<glyph unicode="&#57369;" d="M405 88c-4 5-11 5-15 0l-47-47 0 352c0 66-53 119-120 119-66 0-120-53-120-119l0-367c0-5 5-11 11-11 7 0 11 5 11 11l0 367c0 54 44 97 98 97 55 0 98-43 98-97l0-352-46 47c-5 5-11 5-16 0-2-2-3-4-3-7 0-4 1-6 3-8l73-73 73 72c5 4 5 12 0 16z"/>
<glyph unicode="&#57370;" d="M320 265l-89 49c-3 2-7 2-9 0-3-2-5-5-5-9l0-98c0-3 2-7 5-8 2-2 2-2 4-2 2 0 3 0 5 1l89 49c3 2 5 5 5 8 0 3-2 8-5 10z m-84-41l0 65 59-33z m20 288c-141 0-256-115-256-256 0-141 115-256 256-256 141 0 256 115 256 256 0 141-115 256-256 256z m0-492c-130 0-236 106-236 236 0 130 106 236 236 236 130 0 236-106 236-236 0-130-106-236-236-236z"/>
<glyph unicode="&#57371;" d="M290 314c-2 2-6 2-9 0l-89-49c-3-2-5-5-5-9 0-4 2-7 5-8l89-49c1-2 3-2 5-2 2 0 2 0 4 1 3 2 5 5 5 8l0 99c0 4-2 7-5 9z m-14-90l-59 32 59 33z m-20 288c-141 0-256-115-256-256 0-141 115-256 256-256 141 0 256 115 256 256 0 141-115 256-256 256z m0-492c-130 0-236 106-236 236 0 130 106 236 236 236 130 0 236-106 236-236 0-130-106-236-236-236z"/>
<glyph unicode="&#57372;" d="M265 320c-2 3-5 5-9 5-3 0-7-2-8-5l-49-89c-2-1-2-3-2-5 0-2 0-2 1-4 2-3 5-5 8-5l99 0c3 0 7 2 8 5 2 2 2 6 0 9z m-41-84l33 59 33-59z m32 276c-141 0-256-115-256-256 0-141 115-256 256-256 141 0 256 115 256 256 0 141-115 256-256 256z m0-492c-130 0-236 106-236 236 0 130 106 236 236 236 130 0 236-106 236-236 0-130-106-236-236-236z"/>
<glyph unicode="&#57373;" d="M305 295l-98 0c-3 0-7-2-8-5-2-2-2-2-2-4 0-2 0-3 1-5l49-89c2-3 5-5 8-5 3 0 7 2 8 5l49 89c2 3 2 7 0 9-2 3-3 5-7 5z m-49-78l-33 59 65 0z m0 295c-141 0-256-115-256-256 0-141 115-256 256-256 141 0 256 115 256 256 0 141-115 256-256 256z m0-492c-130 0-236 106-236 236 0 130 106 236 236 236 130 0 236-106 236-236 0-130-106-236-236-236z"/>
<glyph unicode="&#57374;" d="M498 266l-463 0 202 202c4 4 4 10 0 13-3 4-9 4-13 0l-224-224 224-224c2-2 5-3 7-3 2 0 5 1 6 3 4 3 4 9 0 13l-202 202 462 0c6 0 9 3 9 9 0 6-3 9-8 9z"/>
<glyph unicode="&#57375;" d="M283 481c-4 4-9 4-13 0-4-3-4-9 0-13l202-202-463 0c-5 0-9-3-9-9 0-6 4-9 9-9l462 0-201-201c-4-4-4-10 0-13 2-2 5-3 6-3 2 0 5 1 7 3l224 224z"/>
<glyph unicode="&#57376;" d="M479 242c-3 4-9 4-13 0l-202-202 0 463c0 5-3 9-9 9-6 0-9-4-9-9l0-462-202 201c-4 4-10 4-13 0-2-2-3-4-3-6 0-3 1-5 3-7l224-224 224 224c3 4 3 9 0 13z"/>
<glyph unicode="&#57377;" d="M479 288l-224 224-224-224c-2-2-3-4-3-7 0-3 1-5 3-6 3-4 9-4 13 0l202 202 0-462c0-6 3-9 9-9 6 0 9 3 9 9l0 462 201-202c4-4 10-4 13 0 4 3 4 9 1 13z"/>
<glyph unicode="&#57378;" d="M511 509c-5 4-12 4-16 0l-472-471 0 344c0 7-5 12-12 12-6 0-11-5-11-12l0-384 398 0c4 0 1-1 4 1 2 2 3 7 3 10 0 7 0 11-7 11l-359 0 472 473c4 4 4 11 0 16z"/>
<glyph unicode="&#57379;" d="M121 512c-3 0-1 0-3-1-2-2-3-7-3-10 0-7 0-11 6-11l352 0c0 0-1-1-2-1l-468-469c-4-4-4-11 0-16 5-4 11-4 16 0l469 469c1 1 1 1 1 2l0-339c0-7 4-11 11-11 6 0 11 4 11 11l0 376z m367-23c0 0-2 1-3 1l4 0 0-4c0 2-1 2-1 3z"/>
<glyph unicode="&#57380;" d="M511 377c0 7-5 11-11 11-7 0-11-4-11-11l0-339c0 1-1 1-1 2l-469 469c-5 4-11 4-16 0-4-5-4-11 0-16l469-469c0 0 1-1 2-1l-353 0c-6 0-6-4-6-11 0-3 1-8 3-10 2-2 0-1 3-1l390 0z m-26-354c0 0 1 1 3 1 1 2 1 2 1 3l0-4z"/>
<glyph unicode="&#57381;" d="M508 20l-469 469c0 0-1 1-2 1l353 0c6 0 6 4 6 11 0 3-1 8-3 10-2 1 0 1-3 1l-390 0 0-376c0-7 4-11 11-11 7 0 11 4 11 11l0 339c0-1 1-1 1-2l469-469c4-4 11-4 16 0 4 5 4 12 0 16z m-486 466l0 4 4 0c0 0-2-1-3-1 0-1-1-1-1-3z"/>
<glyph unicode="&#57382;" d="M410 256l-286 0 125 125c4 4 4 10 0 14-4 4-10 4-15 0l-147-147 146-147c3-2 6-3 8-3 2 0 5 1 7 3 4 4 4 11 0 15l-119 120 281 0c6 0 10 4 10 10 0 6-4 10-10 10z m51 256l-410 0c-28 0-51-23-51-51l0-410c0-28 23-51 51-51l410 0c28 0 51 23 51 51l0 410c0 28-23 51-51 51z m31-461c0-17-14-31-31-31l-410 0c-17 0-31 14-31 31l0 410c0 17 14 31 31 31l410 0c17 0 31-14 31-31z"/>
<glyph unicode="&#57383;" d="M271 414c-3 0-5-1-7-3-4-4-4-11 0-15l119-120-281 0c-6 0-10-4-10-10 0-6 4-10 10-10l286 0-124-125c-4-4-4-10 0-14 4-4 10-4 15 0l146 146-146 148c-3 2-6 3-8 3z m190 98l-410 0c-28 0-51-23-51-51l0-410c0-28 23-51 51-51l410 0c28 0 51 23 51 51l0 410c0 28-23 51-51 51z m31-461c0-17-14-31-31-31l-410 0c-17 0-31 14-31 31l0 410c0 17 14 31 31 31l410 0c17 0 31-14 31-31z"/>
<glyph unicode="&#57384;" d="M396 248l-120-119 0 281c0 6-4 10-10 10-6 0-10-4-10-10l0-286-125 124c-4 4-10 4-14 0-4-4-4-10 0-15l146-146 147 146c2 3 3 6 3 8 0 3-1 5-3 7-3 4-11 4-14 0z m65 264l-410 0c-28 0-51-23-51-51l0-410c0-28 23-51 51-51l410 0c28 0 51 23 51 51l0 410c0 28-23 51-51 51z m31-461c0-17-14-31-31-31l-410 0c-17 0-31 14-31 31l0 410c0 17 14 31 31 31l410 0c17 0 31-14 31-31z"/>
<glyph unicode="&#57385;" d="M264 425l-147-146c-4-5-4-11 0-15 4-4 10-4 14 0l125 124 0-286c0-6 4-10 10-10 6 0 10 4 10 10l0 281 120-120c4-4 11-4 15 0 2 2 3 5 3 7 0 3-1 5-3 8z m197 87l-410 0c-28 0-51-23-51-51l0-410c0-28 23-51 51-51l410 0c28 0 51 23 51 51l0 410c0 28-23 51-51 51z m31-461c0-17-14-31-31-31l-410 0c-17 0-31 14-31 31l0 410c0 17 14 31 31 31l410 0c17 0 31-14 31-31z"/>
<glyph unicode="&#57386;" d="M307 324l-194-195 0 168c0 6-4 10-11 10-6 0-10-4-10-10l0-205 210 0c3 0 5 0 7 2 2 2 3 5 3 8 0 7-4 12-10 12l-176 0 196 195c4 4 4 10 0 15-5 3-11 3-15 0z m154 188l-410 0c-28 0-51-23-51-51l0-410c0-28 23-51 51-51l410 0c28 0 51 23 51 51l0 410c0 28-23 51-51 51z m31-461c0-17-14-31-31-31l-410 0c-17 0-31 14-31 31l0 410c0 17 14 31 31 31l410 0c17 0 31-14 31-31z"/>
<glyph unicode="&#57387;" d="M203 418c-2-2-3-5-3-8 0-7 4-12 10-12l176 0-196-194c-4-4-4-10 0-15 5-4 11-4 15 0l194 195 0-169c0-6 4-10 11-10 6 0 10 4 10 10l0 205-210 0c-3 0-5 0-7-2z m258 94l-410 0c-28 0-51-23-51-51l0-410c0-28 23-51 51-51l410 0c28 0 51 23 51 51l0 410c0 28-23 51-51 51z m31-461c0-17-14-31-31-31l-410 0c-17 0-31 14-31 31l0 410c0 17 14 31 31 31l410 0c17 0 31-14 31-31z"/>
<glyph unicode="&#57388;" d="M411 312c-7 0-12-4-12-10l0-176-195 196c-4 4-10 4-15 0-4-5-4-11 0-15l195-194-169 0c-6 0-10-4-10-11 0-6 4-10 10-10l205 0 0 210c0 3 0 5-2 7-2 2-5 3-7 3z m50 200l-410 0c-28 0-51-23-51-51l0-410c0-28 23-51 51-51l410 0c28 0 51 23 51 51l0 410c0 28-23 51-51 51z m31-461c0-17-14-31-31-31l-410 0c-17 0-31 14-31 31l0 410c0 17 14 31 31 31l410 0c17 0 31-14 31-31z"/>
<glyph unicode="&#57389;" d="M129 399l168 0c6 0 10 4 10 11 0 6-4 10-10 10l-205 0 0-210c0-3 0-5 2-7 2-2 5-3 8-3 7 0 12 4 12 10l0 176 195-196c4-4 10-4 15 0 4 5 4 11 0 15z m332 113l-410 0c-28 0-51-23-51-51l0-410c0-28 23-51 51-51l410 0c28 0 51 23 51 51l0 410c0 28-23 51-51 51z m31-461c0-17-14-31-31-31l-410 0c-17 0-31 14-31 31l0 410c0 17 14 31 31 31l410 0c17 0 31-14 31-31z"/>
<glyph unicode="&#57390;" d="M256 1c-59 0-114 23-157 64-41 41-64 98-64 156 0 118 94 216 211 221l0 60c0 4 2 7 5 9 3 2 7 2 10-1l211-141c3-2 4-5 4-8 0-3-2-6-4-8l-211-140c-3-2-7-2-10 0-3 2-5 5-5 8l0 59c-66-7-116-62-116-129 0-71 55-128 126-130 5 0 10-5 10-10 0-6-4-10-10-10z m0 421c-110 0-201-91-201-201 0-53 21-105 59-142 10-10 21-18 32-26-23 26-37 60-37 98 0 81 65 147 146 149 3 0 5-1 7-3 2-2 3-4 3-7l0-51 184 122-183 122 0-51c0-3-1-5-3-7-2-2-4-3-7-3z"/>
<glyph unicode="&#57391;" d="M256 512c59 0 114-23 157-64 41-42 64-98 64-157 0-118-94-215-211-221l0-60c0-4-2-7-5-9-3-2-7-2-10 1l-211 141c-3 2-5 5-5 8 0 3 2 6 4 8l211 140c3 2 7 2 10 0 3-2 6-4 6-8l0-59c66 7 116 62 116 129 0 71-56 128-126 131-5 0-10 5-10 10 0 5 4 10 10 10z m0-422c110 0 201 91 201 201 0 53-21 105-59 142-10 10-21 18-32 26 23-26 37-60 37-98 0-81-65-147-146-149-3 0-5 1-7 3-2 2-3 4-3 7l0 51-184-122 183-122 0 51c0 3 1 5 3 7 2 2 4 3 7 3z"/>
<glyph unicode="&#57392;" d="M512 256c0-59-23-114-64-157-41-42-98-64-157-64-118 0-216 94-221 211l-60 0c-4 0-7 2-9 5-2 3-2 7 0 10l141 211c3 3 6 5 9 5 3 0 6-2 8-4l140-211c2-3 2-7 0-10-1-4-4-6-8-6l-59 0c7-66 62-116 129-116 71 0 128 55 131 126 0 5 5 10 10 10 5 0 10-4 10-10z m-422 0c0-110 91-201 201-201 53 0 105 21 142 59 10 10 18 21 26 32-26-23-60-37-98-37-81 0-147 65-150 146 0 3 1 5 3 7 2 2 4 3 7 3l51 0-121 184-122-183 51 0c3 0 5-1 7-3 2-2 3-4 3-7z"/>
<glyph unicode="&#57393;" d="M0 256c0 59 23 114 64 157 42 41 98 64 157 64 118 0 216-94 221-211l60 0c4 0 7-2 9-5 2-3 2-7 0-10l-141-211c-2-3-6-5-9-5-3 0-6 2-8 4l-140 211c-2 3-2 7 0 10 2 3 5 5 9 5l59 0c-8 67-63 117-130 117-71 0-128-56-131-126 0-5-5-10-10-10-5 0-10 4-10 10z m422 0c0 110-91 201-201 201-53 0-105-21-142-59-10-10-18-21-26-32 26 23 60 37 98 37 81 0 147-65 150-146 0-3-1-5-3-7-2-3-5-4-7-4l-51 0 121-183 122 183-51 0c-3 0-5 1-7 3-2 2-3 4-3 7z"/>
<glyph unicode="&#57394;" d="M256 512c-141 0-256-115-256-256 0-141 115-256 256-256 141 0 256 115 256 256 0 141-115 256-256 256z m0-493c-131 0-237 106-237 237 0 131 106 237 237 237 131 0 237-106 237-237 0-131-106-237-237-237z m120 244l-75 75c-4 4-10 4-14 0-4-3-4-9 0-13l60-60-205 0c-5 0-9-3-9-9 0-6 4-9 9-9l205 0-60-60c-4-4-4-10 0-13 2-2 5-3 7-3 2 0 5 1 7 3l75 75c1 1 2 2 2 3 0 1 1 2 1 4 0 1 0 3-1 4 0 1-1 2-2 3z"/>
<glyph unicode="&#57395;" d="M256 512c-141 0-256-115-256-256 0-141 115-256 256-256 141 0 256 115 256 256 0 141-115 256-256 256z m0-493c-131 0-237 106-237 237 0 131 106 237 237 237 131 0 237-106 237-237 0-131-106-237-237-237z m114 246l-205 0 60 60c4 4 4 10 0 13-4 4-10 4-14 0l-75-75c-1-1-2-2-2-3-1-1-1-3-1-4 0-1 0-2 1-4 1-1 1-2 2-3l75-75c2-2 5-3 7-3 2 0 5 1 7 3 4 3 4 9 0 13l-60 60 205 0c5 0 9 3 9 9 0 6-4 9-9 9z"/>
<glyph unicode="&#57396;" d="M256 512c-141 0-256-115-256-256 0-141 115-256 256-256 141 0 256 115 256 256 0 141-115 256-256 256z m0-493c-131 0-237 106-237 237 0 131 106 237 237 237 131 0 237-106 237-237 0-131-106-237-237-237z m69 206l-60-60 0 205c0 5-3 9-9 9-6 0-9-4-9-9l0-205-60 60c-4 4-10 4-13 0-4-4-4-10 0-14l75-75c0 0 0 0 1 0 1-1 2-1 3-2 2-1 5-1 8 0 1 0 2 1 3 2 0 0 0 0 1 0l75 75c2 2 3 5 3 7 0 3-1 5-3 7-5 4-11 4-15 0z"/>
<glyph unicode="&#57397;" d="M256 512c-141 0-256-115-256-256 0-141 115-256 256-256 141 0 256 115 256 256 0 141-115 256-256 256z m0-493c-131 0-237 106-237 237 0 131 106 237 237 237 131 0 237-106 237-237 0-131-106-237-237-237z m7 357c-1 1-2 2-3 2-2 1-5 1-8 0-1-1-2-1-3-2l-75-75c-4-4-4-10 0-14 3-4 9-4 13 0l60 60 0-205c0-5 3-9 9-9 6 0 9 4 9 9l0 205 60-60c4-4 10-4 13 0 2 2 3 5 3 7 0 3-1 5-3 7z"/>
<glyph unicode="&#57398;" d="M437 437c-99 100-263 100-362 0-100-99-100-263 0-362 99-100 263-100 362 0 100 99 100 263 0 362z m-13-349c-92-92-243-92-336 0-93 92-92 243 0 336 92 92 243 92 336 0 92-93 92-243 0-336z m-79 262c-2 1-3 1-4 1l-108 0c-5 0-9-4-9-10 0-5 4-9 9-9l85 0-144-145c-4-4-4-10 0-13 3-4 9-4 13 0l145 145 0-85c0-5 4-9 9-9 3 0 5 1 7 3 2 1 3 3 3 6l0 107c0 1 0 3-1 4-1 2-3 4-5 5z"/>
<glyph unicode="&#57399;" d="M437 437c-99 100-263 100-362 0-100-99-100-263 0-362 99-100 263-100 362 0 100 99 100 263 0 362z m-13-349c-92-92-243-92-336 0-93 92-92 243 0 336 92 92 243 92 336 0 92-93 92-243 0-336z m-221 244l84 0c6 0 10 4 10 9 0 6-4 10-10 10l-107 0c-1 0-3 0-4-1-2-1-3-3-4-5-1-1-1-3-1-4l0-107c0-3 1-5 3-6 1-2 3-3 6-3 6 0 10 4 10 9l0 85 145-145c3-4 9-4 13 0 4 3 4 9 0 13z"/>
<glyph unicode="&#57400;" d="M437 437c-99 100-263 100-362 0-100-99-100-263 0-362 99-100 263-100 362 0 100 99 100 263 0 362z m-13-349c-92-92-243-92-336 0-93 92-92 243 0 336 92 92 243 92 336 0 92-93 92-243 0-336z m-83 199c-5 0-9-4-9-9l0-85-145 145c-4 4-10 4-13 0-4-3-4-9 0-13l145-145-85 0c-5 0-9-4-9-9 0-6 4-10 9-10l107 0c1 0 3 0 4 1 1 0 2 1 3 2 0 0 0 0 1 0 1 1 2 2 2 3 0 1 1 2 1 4l0 107c0 3-1 5-3 6-3 2-6 3-8 3z"/>
<glyph unicode="&#57401;" d="M502 143c-6 0-10-4-10-10l0-95-160 161c-4 4-10 4-14 0-4-4-4-10 0-14l161-160-95 0c-6 0-10-4-10-10 0-6 4-10 10-10l118 0c1 0 3 0 4 1 2 1 4 3 5 5 0 1 1 2 1 4l0 118c0 6-4 10-10 10z m-322 56l-160-161 0 95c0 6-4 10-10 10-6 0-10-4-10-10l0-118c0-1 0-2 1-4 1-2 3-4 5-5 1-1 3-1 4-1l118 0c6 0 10 4 10 10 0 6-4 10-10 10l-95 0 161 160c4 4 4 10 0 14-4 4-10 4-14 0z m331 302c-1 2-3 4-5 5-1 0-2 0-3 1 0 0-1 0-1 0l-118 0c-6 0-10-4-10-10 0-6 4-10 10-10l95 0-161-160c-4-4-4-10 0-14 2-2 5-3 7-3 2 0 5 1 7 3l160 161 0-95c0-6 4-10 10-10 6 0 10 4 10 10l0 118c0 1 0 3-1 4z m-478-14l95 0c6 0 10 4 10 10 0 6-4 10-10 10l-118 0c0 0-1 0-1 0-1 0-2 0-3-1-2-1-4-3-5-5-1-1-1-3-1-4l0-118c0-6 4-10 10-10 6 0 10 4 10 10l0 95 160-161c2-2 5-3 7-3 2 0 5 1 7 3 4 4 4 10 0 14z"/>
<glyph unicode="&#57402;" d="M437 437c-99 100-263 100-362 0-100-99-100-263 0-362 99-100 263-100 362 0 100 99 100 263 0 362z m-13-349c-92-92-243-92-336 0-93 92-92 243 0 336 92 92 243 92 336 0 92-93 92-243 0-336z m-89 250l-145-145 0 85c0 5-4 9-10 9-3 0-5-1-6-3-2-1-3-3-3-6l0-107c0-1 0-2 1-4 0-1 1-2 2-3 0 0 0 0 0 0 1-1 2-1 3-2 1 0 2-1 4-1l107 0c6 0 10 4 10 10 0 5-4 9-10 9l-84 0 145 145c4 4 4 10 0 13-5 4-11 4-14 0z"/>
<glyph unicode="&#57403;" d="M314 501c-88 18-201-4-264-121l-30 90c-2 5-8 8-13 7-5-2-8-8-6-13l37-110c0-4 2-7 5-9 0 0 1 0 1-1 0 0 0 0 1 0 1-1 3-1 4-1 1 0 2 0 3 1l115 38c5 3 8 8 6 14-2 5-7 8-13 6l-94-32c58 109 162 129 243 112 96-20 181-97 181-228 0-135-92-209-193-223-102-14-213 30-251 161-2 5-7 8-12 7-5-2-8-7-7-12 36-126 143-178 243-178 13 0 17 1 30 3 110 15 211 96 211 243 0 141-94 225-197 246z"/>
<glyph unicode="&#57404;" d="M509 136c-5 4-11 4-16 0l-48-48 0 274c0 55-44 100-100 100-51 0-93-39-99-89l-1 0 0-223c0-43-35-78-78-78-43 0-78 35-78 78l0 274 48-48c2-2 4-3 8-3 3 0 5 1 7 3 5 5 5 11 0 16l-66 67c-5 4-11 4-16 0l-67-67c-4-5-4-11 0-16 3-2 5-3 8-3 3 0 6 1 8 3l48 48 0-274c0-55 44-100 100-100 51 0 93 39 99 89l1 0 0 223c0 43 35 78 78 78 43 0 78-35 78-78l0-274-48 48c-4 4-11 4-15 0-5-5-5-11 0-16l66-67c3-2 6-3 8-3 2 0 6 1 8 3l67 67c4 5 4 11 0 16z"/>
<glyph unicode="&#57405;" d="M373 266l-223 1c-43 0-78 35-78 78 0 43 35 78 78 78l274 0-48-48c-2-2-3-4-3-8 0-3 1-5 3-7 5-5 11-5 16 0l67 66c4 5 4 11 0 16l-67 67c-5 4-11 4-16 0-2-3-3-5-3-8 0-3 1-6 3-8l48-48-274 0c-55 0-100-44-100-100 0-51 39-93 89-99l0-1 223 0c43 0 78-35 78-78 0-43-35-78-78-78l-274 0 48 48c4 4 4 11 0 15-5 5-11 5-16 0l-67-66c-2-3-3-5-3-8 0-3 1-6 3-8l67-67c5-4 11-4 16 0 4 5 4 11 0 16l-48 48 274 0c55 0 100 44 100 100 0 51-39 93-89 99z"/>
<glyph unicode="&#57406;" d="M167 287l-115 0 0-230 115 0z m-21-209l-73 0 0 188 73 0z m178 303l-115 0 0-324 115 0z m-21-303l-73 0 0 282 73 0z m178 418l-115 0 0-439 115 0z m-21-418l-73 0 0 397 73 0z m-460-41l0-21 512 0 0 21z"/>
<glyph unicode="&#57407;" d="M465 442c-26 0-46-20-46-46 0-16 74-29 19-38l-9 5-112-209c-8 5-17 9-28 9-10 0-18-28-25-75l-85 121c-5 8 74 16 74 27 0 26-20 46-46 46-26 0-47-20-47-46 0-10 3-19 8-27l-36-42c-5 1-12 3-18 3-26 0-47-20-47-46 0-26 21-47 47-47 26 0 46 21 46 47 0 12-5 23-13 31l35 41c-8-46 15-74 25-74 9 0 17 3 24 7l86-120c-5-83-8-16-8-27 0-26 21-46 47-46 26 0 46 20 46 46 0 9-2 16-5 23l116 215c-6-28 12-47 19-47 27 0 47 21 47 47 0 26-20 46-47 46z m-418-279c-16 0-28 12-28 28 0 16 12 28 28 28 15 0 27-12 27-28 0-16-12-28-27-28z m93 112c-16 0-28 12-28 28 0 15 12 27 28 27 15 0 28-12 28-27 0-16-13-28-28-28z m149-187c-16 0-28 13-28 28 0 16 12 28 28 28 15 0 28-12 28-28 0-15-13-28-28-28z m176 280c-15 0-27 12-27 28 0 15 12 28 27 28 16 0 28-13 28-28 0-16-12-28-28-28z"/>
<glyph unicode="&#57408;" d="M205 321l37 0 0-46 19 0 0 46 46 0c16 0 28 12 28 28l0 56c0 16-12 28-28 28l-102 0c-16 0-28-12-28-28l0-56c0-16 12-28 28-28z m-10 84c0 6 38 9 10 9l102 0c6 0 10-3 10-9l0-56c0-5-4-9-10-9l-102 0c-6 0-10 4-10 9z m289-214l-37 0 0 56-382 0 0-56-37 0c-16 0-28-12-28-28l0-56c0-16 12-28 28-28l102 0c16 0 28 12 28 28l0 56c0 16-12 28-28 28l-46 0 0 37 158 0 0-37-37 0c-16 0-28-12-28-28l0-56c0-16 12-28 28-28l102 0c16 0 28 12 28 28l0 56c0 16-12 28-28 28l-46 0 0 37 167 0 0-37-46 0c-16 0-28-12-28-28l0-56c0-16 12-28 28-28l102 0c16 0 28 12 28 28l0 56c0 16-12 28-28 28z m-354-19c6 0 10-4 10-9l0-56c0-6-4-9-10-9l-102 0c-6 0-9 3-9 9l0 56c0 5 37 9 9 9z m177 0c6 0 10-4 10-9l0-56c0-6-4-9-10-9l-102 0c-6 0-10 3-10 9l0 56c0 5 38 9 10 9z m186-65c0-6-3-9-9-9l-102 0c-6 0-10 3-10 9l0 56c0 5 38 9 10 9l102 0c6 0 9-4 9-9z"/>
<glyph unicode="&#57409;" d="M256 512c-141 0-256-115-256-256 0-141 115-256 256-256 141 0 256 115 256 256 0 141-115 256-256 256z m191-119l-69-44c-11 15-25 27-40 37l43 70c27-17 49-38 66-63z m-191-270c-74 0-133 59-133 133 0 74 59 133 133 133 74 0 133-59 133-133 0-74-59-133-133-133z m0 369c39 0 75-93 108-26l-45-70c-19 10-40 15-63 15-58 0-109-33-135-80l-75 34c39 74 119 127 210 127z m0-472c-130 0-236 106-236 236 0 31-6 60 18 88l75-34c-7-17-11-36-11-54 0-85 69-154 154-154 19 0 38 4 54 11l29-75 19 7-28 77c47 25 80 76 80 134 0 28-8 53-21 76l70 43c20-35 33-76 33-120 0-129-106-235-236-235z"/>
<glyph unicode="&#57410;" d="M299 481c-14 2-29 3-43 3-141 0-256-114-256-256 0-141 115-256 256-256 141 0 256 115 256 256 0 126-90 232-213 253z m193-253c0-46-14-90-37-127l-180 126 191 109c16-32 26-69 26-108z m-36 126l-187-106 36 211c65-15 117-52 151-105z m-200-361c-130 0-236 105-236 235 0 130 106 236 236 236 10 0 19-10 29-21l-40-238 197-138c-43-57-110-93-186-93z"/>
<glyph unicode="&#57411;" d="M199 460l-84 0 0-147-63 0 0-229 147 0z m-84-356l-42 0 0 189 42 0z m63 0l-42 0 0 335 42 0z m282 356l-84 0 0-147-63 0 0-229 147 0z m-84-356l-42 0 0 189 42 0z m63 0l-42 0 0 335 42 0z m-439-31l0-21 512 0 0 21z"/>
<glyph unicode="&#57412;" d="M0 63l0-21 512 0 0 21z m52 196l77-68c2-27 40-21 40-21l89 20 100-91c2-25 39-32 0-2 0-3-1-3-1-3l133 47 0-69 21 0 0 188c0 3-2 6-4 9-3 2-6 2-10 1l-83-30-117 132c-3 3-8 4-11 3l-101-29-116 100c-3 2-8 3-12 1-4-21-6-52-6-94l0-366 21 0 0 166z m0 178l103-90c3-27 40-21 40-21l101 29 117-130c3-39 42-12 31-12l76 26 0-82-133-48-101 90c-1 4-4 4-7 4l-89-20-87 76 0 151z"/>
<glyph unicode="&#57413;" d="M409 486l0-20 68 0-151-150-123 111-203-116 10-17 191 108 126-113 165 163 0-68 20 0 0 102z m-216-161l-111-60 0-239 369 0 0 286-125-99z m237-279l-328 0 0 207 88 46 136-114 104 84z"/>
<glyph unicode="&#57414;" d="M493 321l0-69-179 135c-3 2-7 3-11 1l-148-75-141 151-14-14 146-155c3-37 39-12 19-12l150 75 166-124-58 0 0-20 87 0c2 0 3 0 5 1 29 2 58 5 58 9l0 88-20 0z m-359-106l-86 75 0-242 338 0 0 178-96 67z m233-147l-299 0 0 179 63-55 157 78 79-55z"/>
<glyph unicode="&#57415;" d="M164 276c0 73 21 113 61 113 19 0 29-32 31-43l20 4c0 2-12 60-51 60-30 0-82-18-82-134 0-95-87-154-88-155l12-18c4 3 97 67 97 173z m62-61c-56-140-93-147-94-147l1-11 0-10c8 0 51 7 112 160 10 25 26 55 47 55l-1 0c36 0 78-80 96-136 23-67 77-78 80-79l4 21c-2 0-46 10-64 64 0 1-51 149-116 151-26 1-48-22-67-68z m-206-188l0 368-20 0 0-389 512 0 0 21z"/>
<glyph unicode="&#57416;" d="M0 437l0-362 512 0 0 362z m491-341l-470 0 0 320 470 0z m-322 189l73-146 76 100 87-99 44 87-19 10-30-59-83 96-72-95-73 146-121-160 17-12z m81 21c22 0 41 18 41 42 0 22-18 41-41 41-24 0-42-18-42-41 1-24 19-42 42-42z m0 61c10 0 20-85 20-20 0 65-9-21-20-21-11 0-21 9-21 21 0 11-9 20 21 20z"/>
<glyph unicode="&#57417;" d="M23 320l0-256 93 0 0 256-23 0 0-233-46 0 0 233z m128 0l0-256 93 0 0 256-23 0 0-233-46 0 0 233z m128 0l0-256 93 0 0 256-23 0 0-233-46 0 0 233z m128 0l0-256 93 0 0 256-23 0 0-233-46 0 0 233z m93 23c-5 0 11 4 12 10 12 4-1 10-6 12l-244 128c-4 3-7 3-11 0l-244-128c-5-23-7-81-6-12 0-6 56-114 56-114l489 0z m-244 127l198-103-395 0z m-244-453l500 0 0 24-500 0z"/>
<glyph unicode="&#57418;" d="M230 461c94 0 176-61 202-148l20 5c-29 97-120 163-222 163-39 0-77-10-112-28l10-18c31 18 67 26 102 26z m-5-195l0-5-200 200-15-14 40-39c-39-42-60-96-60-152 0-124 103-225 230-225 58 0 111 21 152 55l44-44 14 14-44 44c38 38 61 89 65 146l51 0 0 20z m-5-215c-116 0-210 92-210 205 0 51 20 99 55 137l292-292c-38-31-85-50-137-50z m152 64l-131 131 189 0c-3-50-24-96-58-131z"/>
<glyph unicode="&#57419;" d="M512 16l-149 149 125 125-83 82-83-82-132 131 33 33-58 58-165-165 58-58 33 32 132-132-82-83 82-83 125 125 148-148z m-454 306l-24 25 131 132 25-25-67-67-50-50z m49 17l66 66 133-133-66-66z m66-232l232 232 50-50-232-232z"/>
<glyph unicode="&#57420;" d="M464 478l-416 0c-27 0-48-21-48-48l0-174c0-27 21-48 48-48 11 0 22 4 29 9l0-183 358 0 0 183c-8-58 18-9 29-9 27 0 48 21 48 48l0 174c0 27-21 48-48 48z m-49-425l-318 0 0 280c0 17 12 29 29 29l260 0c17 0 29-12 29-29z m78 203c0-16-13-29-29-29-17 0-29 13-29 29l0 106 19 0 0 20-396 0 0-20 19 0 0-106c0-16-12-29-29-29-16 0-29 13-29 29l0 174c0 16 13 29 29 29l416 0c16 0 29-13 29-29z m-223 68l-144 0 0-20 144 0z m-144-87l193 0 0 19-193 0z m0-68l193 0 0 19-193 0z"/>
<glyph unicode="&#57421;" d="M256 354c-109 0-197-125-197-278 0-21 21-56 64-69l2-74 376 0 2 7c-4 13 64 48 64 69 11 153-87 278-196 278z m173-333l-346 0c-2 12-3 34-3 55 0 142 79 257 176 257 97 0 176-115 176-257 0-21-1-43-3-55z m-131 352l61 118-91 0-14-16-34 37-65 0 53-139z m-88 118l43-48 23 26 47 0-39-74-62 0-36 96z"/>
<glyph unicode="&#57422;" d="M256 256c141 0 251 57 251 128 0 71-110 128-251 128-141 0-251-57-251-128 0-71 110-128 251-128z m0 235c125 0 229-49 229-107 0-58-104-107-229-107-125 0-229 49-229 107 0 58 104 107 229 107z m0-299c-125 0-229 49-229 107l-22 0c0-72 110-128 251-128 141 0 251 56 251 128l-22 0c0-58-104-107-229-107z m0-85c-125 0-229 49-229 106l-22 0c0-71 110-128 251-128 141 0 251 57 251 128l-22 0c0-57-104-106-229-106z m0-86c-125 0-229 49-229 107l-22 0c0-71 110-128 251-128 141 0 251 57 251 128l-22 0c0-58-104-107-229-107z"/>
<glyph unicode="&#57423;" d="M306 381l22 131-143 0 21-131-15-171-1-11 10 15 173-80 35-81-36 30-346 0z m-3-196l-3 4-97-72 30 29 95 69 20-30z m-5 53l-90-66 20 27 86 63 20-24z m6 254l-17-100-62 0-17 100z m-79-121l61 0 8-86-82-60z m-28-324l4 47 12-102-75-11 120 59 26 59-26 0z"/>
<glyph unicode="&#57424;" d="M134 454c0 18 20 36 39 36l166 0c19 0 39-18 39-36l0-198 23 0 0 198c0 30-30 58-62 58l-166 0c-32 0-62-28-62-58l0-198 23 0z m289-131l0-22 46 0c-6-113-99-202-213-202-114 0-207 89-213 202l46 0 0 22-67 0 0-11c0-126 98-230 223-235l0-55-45 0 0-22 112 0 0 22-45 0 0 55c125 5 223 109 223 235l0 11z"/>
<glyph unicode="&#57425;" d="M70 171l372 0 0 170-372 0z m20 150l332 0 0-130-332 0z m-20 191l0-141 20 0 0 121 332 0 0-121 20 0 0 141z m352-492l-332 0 0 121-20 0 0-141 372 0 0 141-20 0z m-211 392l0-20 90 0 0 20z m0-171l90 0 0 20-90 0z m0-151l0-20 90 0 0 20z"/>
<glyph unicode="&#57426;" d="M505 347c-9 10-21 16-36 16l-346 0c-28 0-57-23-64-52l-37-137 0 189c0 17 15 32 33 32l74 0 0 53 149 0 0-53 128 0 0 21-106 0 0 53-192 0 0-53-54 0c-29 0-54-23-54-53l0-271c0-6 0-12 11-17 10-6 3-11 7-16 8-11 21-16 35-16l347 0c29 0 57 21 64 49l58 214c-5 15 10 29-8 41z m-13-36l-58-215c-5-18-24-33-44-33l-346 0c-9 0-15 3-18 7l-4 7 0 13 58 215c-5 18 26 35 44 35l346 0c8 0 14-32 19-89 48-12 32-21 32-21z m-224-55l160 0 0 21-160 0z m-54-43l160 0 0 22-160 0z"/>
<glyph unicode="&#57427;" d="M0 512l0-366 512 0 0 366z m488-341l-464 0 0 317 464 0z m-332-154l17-17 87 85 86-85 17 17-103 102z m16 310l73-49 96 96 64-50 56 84-21 14-41-62-59 47-99-97-73 48-117-103 16-19z"/>
<glyph unicode="&#57428;" d="M160 37l192 0 0 438-192 0z m21 416l150 0 0-394-150 0z m192 11l0-21 118 0 0-374-118 0 0-21 139 0 0 416z m-373-416l139 0 0 21-118 0 0 374 118 0 0 21-139 0z m128 331l-75 0 0-22 75 0z m0-64l-75 0 0-22 75 0z m-75-86l75 0 0 22-75 0z m160 128l86 0 0 22-86 0z m0-64l86 0 0 22-86 0z m0-64l86 0 0 22-86 0z m246 150l-75 0 0-22 75 0z m-75-86l75 0 0 22-75 0z m0-64l75 0 0 22-75 0z m-128-42c-23 0-43-20-43-43 0-23 20-43 43-43 23 0 43 20 43 43 0 23-20 43-43 43z m0-64c-12 0-21 9-21 21 0 12-10 21 21 21 31 0 21-9 21-21 0-12-9-21-21-21z"/>
<glyph unicode="&#57429;" d="M369 482l-29 0 0 30-168 0 0-30-29 0c-28 0-49-21-49-49l0-384c0-27 21-49 49-49l226 0c28 0 49 22 49 49l0 384c0 28-21 49-49 49z m-177 10l128 0 0-49-128 0z m207-443c0-17-13-29-30-29l-226 0c-17 0-30 12-30 29l0 384c0 17 13 30 30 30l29 0 0-40 168 0 0 40 29 0c17 0 30-13 30-30z m-128 315l79 0 0 20-79 0z m-128-78l207 0 0 19-207 0z m0-60l207 0 0 20-207 0z m0-59l207 0 0 20-207 0z m0-59l167 0 0 20-167 0z"/>
<glyph unicode="&#57430;" d="M90 407l-18 14c-37-46-34-113 82-155l16 17c-34 34-36 87-7 124z m271-189l-25-25-50 50c56 64 53 161-8 222-64 64-166 64-230 0-64-64-64-166 0-230 60-60 158-63 222-81l50-50-26-26 156-156 67 66-156 156z m-99 32c-55-55-143-55-198 0-55 55-55 143 0 198 55 55 143 55 198 0 55-55 55-143 0-198z m65-99l33 33 123-123-33-33z"/>
<glyph unicode="&#57431;" d="M448 237l66 66-171 172-67-66 14-13-27-26-26 26 13 13-66 66-184-185 66-66 13 13 197-197 159 158-26 26 26 26z m-422 53l158 159 39-40-158-159z m362-111l-59 59c-4 4-10 4-13 0-4-37-4-9 0-13l59-59-26-26-59 59c-4 4-10 4-14 0-3-4-3-9 0-13l60-59-26-26-60 59c-3 4-9 4-13 0-3-4-3-9 0-13l60-59-20-20-185 183 131 132 26-26-72-73 53-53 73 72 105-105z m7 58l-86 86c-4 4-9 4-13 0l-66-66-26 26 66 66 33 33 118-119z m-52 212l145-146-39-39-146 145z"/>
<glyph unicode="&#57432;" d="M0 468l0-424 512 0 0 424z m490-403l-468 0 0 382 468 0z m-163 49c78 0 141 64 141 142 0 78-63 142-141 142-79 0-142-64-142-142 0-78 63-142 142-142z m0 262c66 0 120-54 120-120 0-66-54-120-120-120-67 0-120 54-120 120 0 66 53 120 120 120z m-55-120c0-31 24-54 55-54 30 0 54 23 54 54 0 31-24 54-54 54-12 0-24-43-33-12l-25 26-15-16 26-26c-4-76-8-16-8-26z m55 33c18 0 32-14 32-33 0-19-14-33-32-33-19 0-33 14-33 33 0 19 14 33 33 33z m-207 81l-22 0 0-228 22 0z"/>
<glyph unicode="&#57433;" d="M471 481l-462-462 16-16 462 462z m-64-286c-53 0-98-44-98-98 0-55 44-98 98-98 54 0 98 43 98 98 0 54-44 98-98 98z m0-172c-41 0-75 33-75 75 0 42 33 75 75 75 42 0 75-33 75-75 0-42-34-75-75-75z m-303 294c53 0 97 44 97 98 0 54-43 98-97 98-55-11-98-44-98-99 0-53 43-97 98-97z m0 172c40 0 75-33 75-75 0-41-33-75-75-75-43 0-76 34-76 75 0 42 33 75 76 75z"/>
<glyph unicode="&#57434;" d="M431 512l-350 0c-45 0-81-36-81-81l0-350c0-45 36-81 81-81l350 0c45 0 81 36 81 81l0 350c0 45-36 81-81 81z m58-431c0-32-26-58-58-58l-350 0c-32 0-58 26-58 58l0 350c0 32 26 58 58 58l350 0c32 0 58-26 58-58z m-175 291l55 0-91-110-58 58-148-185 19-14 131 164 58-58 104 127 0-51 23 0 0 93-93 0z m70 0z"/>
<glyph unicode="&#57435;" d="M276 442l-251 0 0-20 251 0z m0-71l-251 0 0-20 251 0z m27-91l115 120-115 112-14-15 100-97-101-105z m-67-210l251 0 0 20-251 0z m0 91l0-20 251 0 0 20z m-30 71l-115-120 115-112 14 15-100 97 101 105z"/>
</font>
</defs>
</svg>
